Carefully constructed music sets for your aural pleasure
Aerodynamix 055 @ Frisky Radio July 2017 mixed by JuanP
Nu-Disco / House / Prog
1:00:00
nu-disco, house, prog
SHOW TRACKLIST
SHOW CUESHEET
SHOW TXT PL

LOAD IN AUDIO PLAYER

1
Hal Incandenza
Cuando El Mar Se Trague El Sol (feat. Linda Mirada)
04:19
2
Hal Incandenza
Winter Song (feat. HNIN)
04:43
3
Super8 & Tab ft. Alyna
Say U Luv
03:23
4
Hal Incandenza
I Don t Wanna Leave This World (feat. Eloy)
05:51
5
16 Bit Lolitas
Cipher (Original Mix)
05:27
6
Sally Saphiro
If You Ever Wanna Change Your Mind (Ben Macklin Remix)
05:37
7
16 Bit Lolitas
Higher State (Original Mix)
06:38
8
Hal Incandenza
Rising Sun
05:10
9
LTN
Autumn Leaves (Extended Mix)
07:32
10
Atmosfear
Dancing In Outer Space (The Revenge Rework 2)
06:08
11
Lifelike
Sexodrome (Original Mix)
05:12
PERFORMER "VA [Mixed by JuanP]" TITLE "Aerodynamix 055 (July 2017) Frisky Radio" FILE "72-va-aerodynamix_055_mixed_by_juan_prada_friskyradio-jul2017.mp3" WAVE TRACK 01 AUDIO PERFORMER "Hal Incandenza" TITLE "Cuando El Mar Se Trague El Sol (feat. Linda Mirada)" INDEX 01 00:00:00 TRACK 02 AUDIO PERFORMER "Hal Incandenza" TITLE "Winter Song (feat. HNIN)" INDEX 01 04:19:00 TRACK 03 AUDIO PERFORMER "Super8 & Tab ft. Alyna" TITLE "Say U Luv" INDEX 01 09:02:00 TRACK 04 AUDIO PERFORMER "Hal Incandenza" TITLE "I Don t Wanna Leave This World (feat. Eloy)" INDEX 01 12:25:00 TRACK 05 AUDIO PERFORMER "16 Bit Lolitas" TITLE "Cipher (Original Mix)" INDEX 01 18:16:00 TRACK 06 AUDIO PERFORMER "Sally Saphiro" TITLE "If You Ever Wanna Change Your Mind (Ben Macklin Remix)" INDEX 01 23:43:00 TRACK 07 AUDIO PERFORMER "16 Bit Lolitas" TITLE "Higher State (Original Mix)" INDEX 01 29:20:00 TRACK 08 AUDIO PERFORMER "Hal Incandenza" TITLE "Rising Sun" INDEX 01 35:58:00 TRACK 09 AUDIO PERFORMER "LTN" TITLE "Autumn Leaves (Extended Mix)" INDEX 01 41:08:00 TRACK 10 AUDIO PERFORMER "Atmosfear" TITLE "Dancing In Outer Space (The Revenge Rework 2)" INDEX 01 48:40:00 TRACK 11 AUDIO PERFORMER "Lifelike" TITLE "Sexodrome (Original Mix)" INDEX 01 54:48:00
01 Hal Incandenza - Cuando El Mar Se Trague El Sol (feat. Linda Mirada) 00:00 02 Hal Incandenza - Winter Song (feat. HNIN) 04:19 03 Super8 & Tab ft. Alyna - Say U Luv 09:02 04 Hal Incandenza - I Don t Wanna Leave This World (feat. Eloy) 12:25 05 16 Bit Lolitas - Cipher (Original Mix) 18:16 06 Sally Saphiro - If You Ever Wanna Change Your Mind (Ben Macklin Remix) 23:43 07 16 Bit Lolitas - Higher State (Original Mix) 29:20 08 Hal Incandenza - Rising Sun 35:58 09 LTN - Autumn Leaves (Extended Mix) 41:08 10 Atmosfear - Dancing In Outer Space (The Revenge Rework 2) 48:40 11 Lifelike - Sexodrome (Original Mix) 54:48
Aerodynamix 055 @ Frisky Radio July 2017 mixed by JuanPdata/72-va-aerodynamix_055_mixed_by_juan_prada_friskyradio-jul2017-500px.pngdata/72-va-aerodynamix_055_mixed_by_juan_prada_friskyradio-jul2017.mp3data/72-va-aerodynamix_055_mixed_by_juan_prada_friskyradio-jul2017.ogg
{"Cuesheet":{"performer":"VA [Mixed by JuanP]","title":"Aerodynamix 055 (July 2017) Frisky Radio","file":"72-va-aerodynamix_055_mixed_by_juan_prada_friskyradio-jul2017.mp3"},"Track":[{"performer":"Hal Incandenza","title":"Cuando El Mar Se Trague El Sol (feat. Linda Mirada)","index":{"time":"00:00:00","frames":0,"seconds":0,"lenseconds":259,"lentime":"04:19"}},{"performer":"Hal Incandenza","title":"Winter Song (feat. HNIN)","index":{"time":"04:19:00","frames":19425,"seconds":259,"lenseconds":283,"lentime":"04:43"}},{"performer":"Super8 & Tab ft. Alyna","title":"Say U Luv","index":{"time":"09:02:00","frames":40650,"seconds":542,"lenseconds":203,"lentime":"03:23"}},{"performer":"Hal Incandenza","title":"I Don t Wanna Leave This World (feat. Eloy)","index":{"time":"12:25:00","frames":55875,"seconds":745,"lenseconds":351,"lentime":"05:51"}},{"performer":"16 Bit Lolitas","title":"Cipher (Original Mix)","index":{"time":"18:16:00","frames":82200,"seconds":1096,"lenseconds":327,"lentime":"05:27"}},{"performer":"Sally Saphiro","title":"If You Ever Wanna Change Your Mind (Ben Macklin Remix)","index":{"time":"23:43:00","frames":106725,"seconds":1423,"lenseconds":337,"lentime":"05:37"}},{"performer":"16 Bit Lolitas","title":"Higher State (Original Mix)","index":{"time":"29:20:00","frames":132000,"seconds":1760,"lenseconds":398,"lentime":"06:38"}},{"performer":"Hal Incandenza","title":"Rising Sun","index":{"time":"35:58:00","frames":161850,"seconds":2158,"lenseconds":310,"lentime":"05:10"}},{"performer":"LTN","title":"Autumn Leaves (Extended Mix)","index":{"time":"41:08:00","frames":185100,"seconds":2468,"lenseconds":452,"lentime":"07:32"}},{"performer":"Atmosfear","title":"Dancing In Outer Space (The Revenge Rework 2)","index":{"time":"48:40:00","frames":219000,"seconds":2920,"lenseconds":368,"lentime":"06:08"}},{"performer":"Lifelike","title":"Sexodrome (Original Mix)","index":{"time":"54:48:00","frames":246600,"seconds":3288,"lenseconds":312,"lentime":"05:12"}}]}