Carefully constructed music sets for your aural pleasure
Aerodynamix 054 @ Frisky Radio June 2017 mixed by JuanP
Progressive House
1:00:00
progressive house
SHOW TRACKLIST
SHOW CUESHEET
SHOW TXT PL

LOAD IN AUDIO PLAYER

1
Chicola
Drosera (Original Mix)
09:21
2
Cid Inc, Darin Epsilon
Resistencia (Original Mix)
06:56
3
Jerome Isma·Ae, Paul Thomas
Tomorrow (Paul Thomas & Whit-Akre Remix)
06:58
4
Orsa
Cosmonaut (Original Mix)
04:12
5
Oliver Koletzki
Planetarium (Original Mix)
05:53
6
Ramon Vincent & Nathan Rux
Morning Sun (Original Mix)
04:04
7
Japeboy
Dawning (Talamanca Remix)
06:06
8
19 Hz
Another Skin (Dan & Sam Remix)
07:37
9
Jean Claude Ades
My Journey (Jerome Isma-Ae Remix)
07:10
10
Super8 & Tab
Memory Lane
01:43
PERFORMER "VA [Mixed by JuanP]" TITLE "Aerodynamix 054 (June 2017) Frisky Radio" FILE "71-va-aerodynamix_054_mixed_by_juan_prada_friskyradio-jun2017.mp3" WAVE TRACK 01 AUDIO PERFORMER "Chicola" TITLE "Drosera (Original Mix)" INDEX 01 00:00:00 TRACK 02 AUDIO PERFORMER "Cid Inc, Darin Epsilon" TITLE "Resistencia (Original Mix)" INDEX 01 09:21:00 TRACK 03 AUDIO PERFORMER "Jerome Isma·Ae, Paul Thomas" TITLE "Tomorrow (Paul Thomas & Whit-Akre Remix)" INDEX 01 16:17:00 TRACK 04 AUDIO PERFORMER "Orsa" TITLE "Cosmonaut (Original Mix)" INDEX 01 23:15:00 TRACK 05 AUDIO PERFORMER "Oliver Koletzki" TITLE "Planetarium (Original Mix)" INDEX 01 27:27:00 TRACK 06 AUDIO PERFORMER "Ramon Vincent & Nathan Rux" TITLE "Morning Sun (Original Mix)" INDEX 01 33:20:00 TRACK 07 AUDIO PERFORMER "Japeboy" TITLE "Dawning (Talamanca Remix)" INDEX 01 37:24:00 TRACK 08 AUDIO PERFORMER "19 Hz" TITLE "Another Skin (Dan & Sam Remix)" INDEX 01 43:30:00 TRACK 09 AUDIO PERFORMER "Jean Claude Ades" TITLE "My Journey (Jerome Isma-Ae Remix)" INDEX 01 51:07:00 TRACK 10 AUDIO PERFORMER "Super8 & Tab" TITLE "Memory Lane" INDEX 01 57:77:00
01 Chicola - Drosera (Original Mix) 00:00 02 Cid Inc, Darin Epsilon - Resistencia (Original Mix) 09:21 03 Jerome Isma·Ae, Paul Thomas - Tomorrow (Paul Thomas & Whit-Akre Remix) 16:17 04 Orsa - Cosmonaut (Original Mix) 23:15 05 Oliver Koletzki - Planetarium (Original Mix) 27:27 06 Ramon Vincent & Nathan Rux - Morning Sun (Original Mix) 33:20 07 Japeboy - Dawning (Talamanca Remix) 37:24 08 19 Hz - Another Skin (Dan & Sam Remix) 43:30 09 Jean Claude Ades - My Journey (Jerome Isma-Ae Remix) 51:07 10 Super8 & Tab - Memory Lane 57:77
Aerodynamix 054 @ Frisky Radio June 2017 mixed by JuanPdata/71-va-aerodynamix_054_mixed_by_juan_prada_friskyradio-jun2017-500px.pngdata/71-va-aerodynamix_054_mixed_by_juan_prada_friskyradio-jun2017.mp3data/71-va-aerodynamix_054_mixed_by_juan_prada_friskyradio-jun2017.ogg
{"Cuesheet":{"performer":"VA [Mixed by JuanP]","title":"Aerodynamix 054 (June 2017) Frisky Radio","file":"71-va-aerodynamix_054_mixed_by_juan_prada_friskyradio-jun2017.mp3"},"Track":[{"performer":"Chicola","title":"Drosera (Original Mix)","index":{"time":"00:00:00","frames":0,"seconds":0,"lenseconds":561,"lentime":"09:21"}},{"performer":"Cid Inc, Darin Epsilon","title":"Resistencia (Original Mix)","index":{"time":"09:21:00","frames":42075,"seconds":561,"lenseconds":416,"lentime":"06:56"}},{"performer":"Jerome Isma\u00b7Ae, Paul Thomas","title":"Tomorrow (Paul Thomas & Whit-Akre Remix)","index":{"time":"16:17:00","frames":73275,"seconds":977,"lenseconds":418,"lentime":"06:58"}},{"performer":"Orsa","title":"Cosmonaut (Original Mix)","index":{"time":"23:15:00","frames":104625,"seconds":1395,"lenseconds":252,"lentime":"04:12"}},{"performer":"Oliver Koletzki","title":"Planetarium (Original Mix)","index":{"time":"27:27:00","frames":123525,"seconds":1647,"lenseconds":353,"lentime":"05:53"}},{"performer":"Ramon Vincent & Nathan Rux","title":"Morning Sun (Original Mix)","index":{"time":"33:20:00","frames":150000,"seconds":2000,"lenseconds":244,"lentime":"04:04"}},{"performer":"Japeboy","title":"Dawning (Talamanca Remix)","index":{"time":"37:24:00","frames":168300,"seconds":2244,"lenseconds":366,"lentime":"06:06"}},{"performer":"19 Hz","title":"Another Skin (Dan & Sam Remix)","index":{"time":"43:30:00","frames":195750,"seconds":2610,"lenseconds":457,"lentime":"07:37"}},{"performer":"Jean Claude Ades","title":"My Journey (Jerome Isma-Ae Remix)","index":{"time":"51:07:00","frames":230025,"seconds":3067,"lenseconds":430,"lentime":"07:10"}},{"performer":"Super8 & Tab","title":"Memory Lane","index":{"time":"57:77:00","frames":262275,"seconds":3497,"lenseconds":103,"lentime":"01:43"}}]}