Carefully constructed music sets for your aural pleasure
Aerodynamix 053 @ Frisky Radio May 2017 mixed by JuanP
Progressive House
1:00:00
progressive house
SHOW TRACKLIST
SHOW CUESHEET
SHOW TXT PL

LOAD IN AUDIO PLAYER

1
16 Bit Lolitas
Rainbows (Original Mix)
06:20
2
Matan Caspi
Paranara (Original Mix)
07:25
3
Eelke Kleijn
Home (Extended Mix)
07:58
4
Aaryon
Ineffable Skies (Aemes Remix)
04:19
5
D-Nox, Victor Ruiz
Pure (Original Mix)
05:54
6
Michael A
Refraction (Matter Remix)
08:24
7
Jean-Michel Jarre & Rone
The Heart Of Noise (CJ Art s Art Of Noise Remix)
06:49
8
Adriatique
Soul Valley (Original Mix)
08:08
9
Movement Machina
Soul Muse (Gai Barone Remix)
04:43
PERFORMER "VA [Mixed by JuanP]" TITLE "Aerodynamix 053 (May 2017) Frisky Radio" FILE "70-va-aerodynamix_053_mixed_by_juan_prada_friskyradio-may2017.mp3" WAVE TRACK 01 AUDIO PERFORMER "16 Bit Lolitas" TITLE "Rainbows (Original Mix)" INDEX 01 00:00:00 TRACK 02 AUDIO PERFORMER "Matan Caspi" TITLE "Paranara (Original Mix)" INDEX 01 06:20:00 TRACK 03 AUDIO PERFORMER "Eelke Kleijn" TITLE "Home (Extended Mix)" INDEX 01 13:45:00 TRACK 04 AUDIO PERFORMER "Aaryon" TITLE "Ineffable Skies (Aemes Remix)" INDEX 01 21:43:00 TRACK 05 AUDIO PERFORMER "D-Nox, Victor Ruiz" TITLE "Pure (Original Mix)" INDEX 01 26:02:00 TRACK 06 AUDIO PERFORMER "Michael A" TITLE "Refraction (Matter Remix)" INDEX 01 31:56:00 TRACK 07 AUDIO PERFORMER "Jean-Michel Jarre & Rone" TITLE "The Heart Of Noise (CJ Art s Art Of Noise Remix)" INDEX 01 40:20:00 TRACK 08 AUDIO PERFORMER "Adriatique" TITLE "Soul Valley (Original Mix)" INDEX 01 47:09:00 TRACK 09 AUDIO PERFORMER "Movement Machina" TITLE "Soul Muse (Gai Barone Remix)" INDEX 01 55:17:00
01 16 Bit Lolitas - Rainbows (Original Mix) 00:00 02 Matan Caspi - Paranara (Original Mix) 06:20 03 Eelke Kleijn - Home (Extended Mix) 13:45 04 Aaryon - Ineffable Skies (Aemes Remix) 21:43 05 D-Nox, Victor Ruiz - Pure (Original Mix) 26:02 06 Michael A - Refraction (Matter Remix) 31:56 07 Jean-Michel Jarre & Rone - The Heart Of Noise (CJ Art s Art Of Noise Remix) 40:20 08 Adriatique - Soul Valley (Original Mix) 47:09 09 Movement Machina - Soul Muse (Gai Barone Remix) 55:17
Aerodynamix 053 @ Frisky Radio May 2017 mixed by JuanPdata/70-va-aerodynamix_053_mixed_by_juan_prada_friskyradio-may2017-500px.pngdata/70-va-aerodynamix_053_mixed_by_juan_prada_friskyradio-may2017.mp3data/70-va-aerodynamix_053_mixed_by_juan_prada_friskyradio-may2017.ogg
{"Cuesheet":{"performer":"VA [Mixed by JuanP]","title":"Aerodynamix 053 (May 2017) Frisky Radio","file":"70-va-aerodynamix_053_mixed_by_juan_prada_friskyradio-may2017.mp3"},"Track":[{"performer":"16 Bit Lolitas","title":"Rainbows (Original Mix)","index":{"time":"00:00:00","frames":0,"seconds":0,"lenseconds":380,"lentime":"06:20"}},{"performer":"Matan Caspi","title":"Paranara (Original Mix)","index":{"time":"06:20:00","frames":28500,"seconds":380,"lenseconds":445,"lentime":"07:25"}},{"performer":"Eelke Kleijn","title":"Home (Extended Mix)","index":{"time":"13:45:00","frames":61875,"seconds":825,"lenseconds":478,"lentime":"07:58"}},{"performer":"Aaryon","title":"Ineffable Skies (Aemes Remix)","index":{"time":"21:43:00","frames":97725,"seconds":1303,"lenseconds":259,"lentime":"04:19"}},{"performer":"D-Nox, Victor Ruiz","title":"Pure (Original Mix)","index":{"time":"26:02:00","frames":117150,"seconds":1562,"lenseconds":354,"lentime":"05:54"}},{"performer":"Michael A","title":"Refraction (Matter Remix)","index":{"time":"31:56:00","frames":143700,"seconds":1916,"lenseconds":504,"lentime":"08:24"}},{"performer":"Jean-Michel Jarre & Rone","title":"The Heart Of Noise (CJ Art s Art Of Noise Remix)","index":{"time":"40:20:00","frames":181500,"seconds":2420,"lenseconds":409,"lentime":"06:49"}},{"performer":"Adriatique","title":"Soul Valley (Original Mix)","index":{"time":"47:09:00","frames":212175,"seconds":2829,"lenseconds":488,"lentime":"08:08"}},{"performer":"Movement Machina","title":"Soul Muse (Gai Barone Remix)","index":{"time":"55:17:00","frames":248775,"seconds":3317,"lenseconds":283,"lentime":"04:43"}}]}