Carefully constructed music sets for your aural pleasure
Aerodynamix 051 @ Frisky Radio March 2017 mixed by JuanP
Progressive House
1:00:00
progressive house
SHOW TRACKLIST
SHOW CUESHEET
SHOW TXT PL

LOAD IN AUDIO PLAYER

1
R I P Bestia
African Wedding Ceremony (Original Mix)
05:37
2
Kasper Bjorke
Choir Of Young Ravers (Original Mix)
05:47
3
Jan Blomqvist
Stories Over (Aparde Remix)
04:22
4
Rafael Lambert
Bit of Sunshine (feat. Mihai Sorohan & Chloe Kay) (Nayio Bitz Remix)
05:07
5
Sebastien Leger
Love Star (Original Mix)
06:02
6
Jerome Isma-Ae, Alastor
Kubrick (Extended Mix)
06:49
7
D-Formation
Balkia (D-Nox, Beckers Remix)
07:02
8
D-Nox & Beckers
Mondays (Original Mix)
04:39
9
Rick Pier O Neil & Desaturate
Crouch (Matan Caspi Remix)
06:24
10
Zonderling
Annalog (Extended Mix)
04:17
11
M83
Sunday Night 1987
03:54
PERFORMER "VA [Mixed by JuanP]" TITLE "Aerodynamix 051 (March 2017) Frisky Radio" FILE "68-va-aerodynamix_051_mixed_by_juan_prada_friskyradio-mar2017.mp3" WAVE TRACK 01 AUDIO PERFORMER "R I P Bestia" TITLE "African Wedding Ceremony (Original Mix)" INDEX 01 00:00:00 TRACK 02 AUDIO PERFORMER "Kasper Bjorke" TITLE "Choir Of Young Ravers (Original Mix)" INDEX 01 05:37:00 TRACK 03 AUDIO PERFORMER "Jan Blomqvist" TITLE "Stories Over (Aparde Remix)" INDEX 01 11:24:00 TRACK 04 AUDIO PERFORMER "Rafael Lambert" TITLE "Bit of Sunshine (feat. Mihai Sorohan & Chloe Kay) (Nayio Bitz Remix)" INDEX 01 15:46:00 TRACK 05 AUDIO PERFORMER "Sebastien Leger" TITLE "Love Star (Original Mix)" INDEX 01 20:53:00 TRACK 06 AUDIO PERFORMER "Jerome Isma-Ae, Alastor" TITLE "Kubrick (Extended Mix)" INDEX 01 26:55:00 TRACK 07 AUDIO PERFORMER "D-Formation" TITLE "Balkia (D-Nox, Beckers Remix)" INDEX 01 33:44:00 TRACK 08 AUDIO PERFORMER "D-Nox & Beckers" TITLE "Mondays (Original Mix)" INDEX 01 40:46:00 TRACK 09 AUDIO PERFORMER "Rick Pier O Neil & Desaturate" TITLE "Crouch (Matan Caspi Remix)" INDEX 01 45:25:00 TRACK 10 AUDIO PERFORMER "Zonderling" TITLE "Annalog (Extended Mix)" INDEX 01 51:49:00 TRACK 11 AUDIO PERFORMER "M83" TITLE "Sunday Night 1987" INDEX 01 56:06:00
01 R I P Bestia - African Wedding Ceremony (Original Mix) 00:00 02 Kasper Bjorke - Choir Of Young Ravers (Original Mix) 05:37 03 Jan Blomqvist - Stories Over (Aparde Remix) 11:24 04 Rafael Lambert - Bit of Sunshine (feat. Mihai Sorohan & Chloe Kay) (Nayio Bitz Remix) 15:46 05 Sebastien Leger - Love Star (Original Mix) 20:53 06 Jerome Isma-Ae, Alastor - Kubrick (Extended Mix) 26:55 07 D-Formation - Balkia (D-Nox, Beckers Remix) 33:44 08 D-Nox & Beckers - Mondays (Original Mix) 40:46 09 Rick Pier O Neil & Desaturate - Crouch (Matan Caspi Remix) 45:25 10 Zonderling - Annalog (Extended Mix) 51:49 11 M83 - Sunday Night 1987 56:06
Aerodynamix 051 @ Frisky Radio March 2017 mixed by JuanPdata/68-va-aerodynamix_051_mixed_by_juan_prada_friskyradio-mar2017-500px.pngdata/68-va-aerodynamix_051_mixed_by_juan_prada_friskyradio-mar2017.mp3data/68-va-aerodynamix_051_mixed_by_juan_prada_friskyradio-mar2017.ogg
{"Cuesheet":{"performer":"VA [Mixed by JuanP]","title":"Aerodynamix 051 (March 2017) Frisky Radio","file":"68-va-aerodynamix_051_mixed_by_juan_prada_friskyradio-mar2017.mp3"},"Track":[{"performer":"R I P Bestia","title":"African Wedding Ceremony (Original Mix)","index":{"time":"00:00:00","frames":0,"seconds":0,"lenseconds":337,"lentime":"05:37"}},{"performer":"Kasper Bjorke","title":"Choir Of Young Ravers (Original Mix)","index":{"time":"05:37:00","frames":25275,"seconds":337,"lenseconds":347,"lentime":"05:47"}},{"performer":"Jan Blomqvist","title":"Stories Over (Aparde Remix)","index":{"time":"11:24:00","frames":51300,"seconds":684,"lenseconds":262,"lentime":"04:22"}},{"performer":"Rafael Lambert","title":"Bit of Sunshine (feat. Mihai Sorohan & Chloe Kay) (Nayio Bitz Remix)","index":{"time":"15:46:00","frames":70950,"seconds":946,"lenseconds":307,"lentime":"05:07"}},{"performer":"Sebastien Leger","title":"Love Star (Original Mix)","index":{"time":"20:53:00","frames":93975,"seconds":1253,"lenseconds":362,"lentime":"06:02"}},{"performer":"Jerome Isma-Ae, Alastor","title":"Kubrick (Extended Mix)","index":{"time":"26:55:00","frames":121125,"seconds":1615,"lenseconds":409,"lentime":"06:49"}},{"performer":"D-Formation","title":"Balkia (D-Nox, Beckers Remix)","index":{"time":"33:44:00","frames":151800,"seconds":2024,"lenseconds":422,"lentime":"07:02"}},{"performer":"D-Nox & Beckers","title":"Mondays (Original Mix)","index":{"time":"40:46:00","frames":183450,"seconds":2446,"lenseconds":279,"lentime":"04:39"}},{"performer":"Rick Pier O Neil & Desaturate","title":"Crouch (Matan Caspi Remix)","index":{"time":"45:25:00","frames":204375,"seconds":2725,"lenseconds":384,"lentime":"06:24"}},{"performer":"Zonderling","title":"Annalog (Extended Mix)","index":{"time":"51:49:00","frames":233175,"seconds":3109,"lenseconds":257,"lentime":"04:17"}},{"performer":"M83","title":"Sunday Night 1987","index":{"time":"56:06:00","frames":252450,"seconds":3366,"lenseconds":234,"lentime":"03:54"}}]}