Carefully constructed music sets for your aural pleasure
Aerodynamix 050 @ Frisky Radio February 2017 mixed by JuanP
Progressive House
1:00:00
progressive house
SHOW TRACKLIST
SHOW CUESHEET
SHOW TXT PL

LOAD IN AUDIO PLAYER

1
The Silent Ones
Magical Party (Jonas Bering Mix)
07:52
2
The Modernist feat. Joe Goddard
The Price Of Love
03:40
3
Khen Guy Mantzur ft Kamila
Children with no name
06:49
4
Nora En Pure
Diving with Whales (Daniel Portman Remix)
04:23
5
Gregory Esayan
Taxi (Approaching Black Remix)
06:12
6
Soundprank
Burner (Shingo Nakamura Remix)
07:13
7
Several Spirits
Stunning Blue Dusk (Kalsy Remix)
07:26
8
Kraftwerk
Robots (Victor Ruiz Bootleg)
06:07
9
Deadmau5
Phantoms Can t Hang
10:18
PERFORMER "VA [Mixed by JuanP]" TITLE "Aerodynamix 050 (February 2017) Frisky Radio" FILE "67-va-aerodynamix_050_mixed_by_juan_prada_friskyradio-feb2017.mp3" WAVE TRACK 01 AUDIO PERFORMER "The Silent Ones" TITLE "Magical Party (Jonas Bering Mix)" INDEX 01 00:00:00 TRACK 02 AUDIO PERFORMER "The Modernist feat. Joe Goddard" TITLE "The Price Of Love" INDEX 01 07:52:00 TRACK 03 AUDIO PERFORMER "Khen Guy Mantzur ft Kamila" TITLE "Children with no name" INDEX 01 11:32:00 TRACK 04 AUDIO PERFORMER "Nora En Pure" TITLE "Diving with Whales (Daniel Portman Remix)" INDEX 01 18:21:00 TRACK 05 AUDIO PERFORMER "Gregory Esayan" TITLE "Taxi (Approaching Black Remix)" INDEX 01 22:44:00 TRACK 06 AUDIO PERFORMER "Soundprank" TITLE "Burner (Shingo Nakamura Remix)" INDEX 01 28:56:00 TRACK 07 AUDIO PERFORMER "Several Spirits" TITLE "Stunning Blue Dusk (Kalsy Remix)" INDEX 01 36:09:00 TRACK 08 AUDIO PERFORMER "Kraftwerk" TITLE "Robots (Victor Ruiz Bootleg)" INDEX 01 43:35:00 TRACK 09 AUDIO PERFORMER "Deadmau5" TITLE "Phantoms Can t Hang" INDEX 01 49:42:00
01 The Silent Ones - Magical Party (Jonas Bering Mix) 00:00 02 The Modernist feat. Joe Goddard - The Price Of Love 07:52 03 Khen Guy Mantzur ft Kamila - Children with no name 11:32 04 Nora En Pure - Diving with Whales (Daniel Portman Remix) 18:21 05 Gregory Esayan - Taxi (Approaching Black Remix) 22:44 06 Soundprank - Burner (Shingo Nakamura Remix) 28:56 07 Several Spirits - Stunning Blue Dusk (Kalsy Remix) 36:09 08 Kraftwerk - Robots (Victor Ruiz Bootleg) 43:35 09 Deadmau5 - Phantoms Can t Hang 49:42
Aerodynamix 050 @ Frisky Radio February 2017 mixed by JuanPdata/67-va-aerodynamix_050_mixed_by_juan_prada_friskyradio-feb2017-500px.pngdata/67-va-aerodynamix_050_mixed_by_juan_prada_friskyradio-feb2017.mp3data/67-va-aerodynamix_050_mixed_by_juan_prada_friskyradio-feb2017.ogg
{"Cuesheet":{"performer":"VA [Mixed by JuanP]","title":"Aerodynamix 050 (February 2017) Frisky Radio","file":"67-va-aerodynamix_050_mixed_by_juan_prada_friskyradio-feb2017.mp3"},"Track":[{"performer":"The Silent Ones","title":"Magical Party (Jonas Bering Mix)","index":{"time":"00:00:00","frames":0,"seconds":0,"lenseconds":472,"lentime":"07:52"}},{"performer":"The Modernist feat. Joe Goddard","title":"The Price Of Love","index":{"time":"07:52:00","frames":35400,"seconds":472,"lenseconds":220,"lentime":"03:40"}},{"performer":"Khen Guy Mantzur ft Kamila","title":"Children with no name","index":{"time":"11:32:00","frames":51900,"seconds":692,"lenseconds":409,"lentime":"06:49"}},{"performer":"Nora En Pure","title":"Diving with Whales (Daniel Portman Remix)","index":{"time":"18:21:00","frames":82575,"seconds":1101,"lenseconds":263,"lentime":"04:23"}},{"performer":"Gregory Esayan","title":"Taxi (Approaching Black Remix)","index":{"time":"22:44:00","frames":102300,"seconds":1364,"lenseconds":372,"lentime":"06:12"}},{"performer":"Soundprank","title":"Burner (Shingo Nakamura Remix)","index":{"time":"28:56:00","frames":130200,"seconds":1736,"lenseconds":433,"lentime":"07:13"}},{"performer":"Several Spirits","title":"Stunning Blue Dusk (Kalsy Remix)","index":{"time":"36:09:00","frames":162675,"seconds":2169,"lenseconds":446,"lentime":"07:26"}},{"performer":"Kraftwerk","title":"Robots (Victor Ruiz Bootleg)","index":{"time":"43:35:00","frames":196125,"seconds":2615,"lenseconds":367,"lentime":"06:07"}},{"performer":"Deadmau5","title":"Phantoms Can t Hang","index":{"time":"49:42:00","frames":223650,"seconds":2982,"lenseconds":618,"lentime":"10:18"}}]}