Carefully constructed music sets for your aural pleasure
Aerodynamix 046 @ Frisky Radio October 2016 mixed by JuanP
Deep/Progressive House
1:00:00
deep, progressive house
SHOW TRACKLIST
SHOW CUESHEET
SHOW TXT PL

LOAD IN AUDIO PLAYER

1
Sasha
Cassette Sessions E (Rival Consoles Remix)
04:41
2
Eekkoo, Sailor & I
Letters (Capital) (Jeremy Olander Remix)
07:01
3
Keith Harris
Ocean Point (Original Mix)
05:12
4
Jerome Isma-Ae & Alastor
Fiction (Extended Mix)
06:15
5
Davide James, Alex Moaca
F I J I (Original Mix)
08:59
6
Roman Rai
Prague Stories
05:43
7
UMEK, Mike Vale
All I Want (Dosem Remix)
04:39
8
Steve Slight
Nine Thousand (Original mix)
06:19
9
Boris Brejcha
Sad But True (Original mix)
07:03
10
Rolo Green
Stanton Works (Original Mix) (JP Edit)
04:08
PERFORMER "VA [Mixed by JuanP]" TITLE "Aerodynamix 046 (October 2016) Frisky Radio" FILE "63-va-aerodynamix_046_mixed_by_juan_prada_friskyradio-oct2016.mp3" WAVE TRACK 01 AUDIO PERFORMER "Sasha" TITLE "Cassette Sessions E (Rival Consoles Remix)" INDEX 01 00:00:00 TRACK 02 AUDIO PERFORMER "Eekkoo, Sailor & I" TITLE "Letters (Capital) (Jeremy Olander Remix)" INDEX 01 04:41:00 TRACK 03 AUDIO PERFORMER "Keith Harris" TITLE "Ocean Point (Original Mix)" INDEX 01 11:42:00 TRACK 04 AUDIO PERFORMER "Jerome Isma-Ae & Alastor" TITLE "Fiction (Extended Mix)" INDEX 01 16:54:00 TRACK 05 AUDIO PERFORMER "Davide James, Alex Moaca" TITLE "F I J I (Original Mix)" INDEX 01 23:09:00 TRACK 06 AUDIO PERFORMER "Roman Rai" TITLE "Prague Stories" INDEX 01 32:08:00 TRACK 07 AUDIO PERFORMER "UMEK, Mike Vale" TITLE "All I Want (Dosem Remix)" INDEX 01 37:51:00 TRACK 08 AUDIO PERFORMER "Steve Slight" TITLE "Nine Thousand (Original mix)" INDEX 01 42:30:00 TRACK 09 AUDIO PERFORMER "Boris Brejcha" TITLE "Sad But True (Original mix)" INDEX 01 48:49:00 TRACK 10 AUDIO PERFORMER "Rolo Green" TITLE "Stanton Works (Original Mix) (JP Edit)" INDEX 01 55:52:00
01 Sasha - Cassette Sessions E (Rival Consoles Remix) 00:00 02 Eekkoo, Sailor & I - Letters (Capital) (Jeremy Olander Remix) 04:41 03 Keith Harris - Ocean Point (Original Mix) 11:42 04 Jerome Isma-Ae & Alastor - Fiction (Extended Mix) 16:54 05 Davide James, Alex Moaca - F I J I (Original Mix) 23:09 06 Roman Rai - Prague Stories 32:08 07 UMEK, Mike Vale - All I Want (Dosem Remix) 37:51 08 Steve Slight - Nine Thousand (Original mix) 42:30 09 Boris Brejcha - Sad But True (Original mix) 48:49 10 Rolo Green - Stanton Works (Original Mix) (JP Edit) 55:52
Aerodynamix 046 @ Frisky Radio October 2016 mixed by JuanPdata/63-va-aerodynamix_046_mixed_by_juan_prada_friskyradio-oct2016-500px.pngdata/63-va-aerodynamix_046_mixed_by_juan_prada_friskyradio-oct2016.mp3data/63-va-aerodynamix_046_mixed_by_juan_prada_friskyradio-oct2016.ogg
{"Cuesheet":{"performer":"VA [Mixed by JuanP]","title":"Aerodynamix 046 (October 2016) Frisky Radio","file":"63-va-aerodynamix_046_mixed_by_juan_prada_friskyradio-oct2016.mp3"},"Track":[{"performer":"Sasha","title":"Cassette Sessions E (Rival Consoles Remix)","index":{"time":"00:00:00","frames":0,"seconds":0,"lenseconds":281,"lentime":"04:41"}},{"performer":"Eekkoo, Sailor & I","title":"Letters (Capital) (Jeremy Olander Remix)","index":{"time":"04:41:00","frames":21075,"seconds":281,"lenseconds":421,"lentime":"07:01"}},{"performer":"Keith Harris","title":"Ocean Point (Original Mix)","index":{"time":"11:42:00","frames":52650,"seconds":702,"lenseconds":312,"lentime":"05:12"}},{"performer":"Jerome Isma-Ae & Alastor","title":"Fiction (Extended Mix)","index":{"time":"16:54:00","frames":76050,"seconds":1014,"lenseconds":375,"lentime":"06:15"}},{"performer":"Davide James, Alex Moaca","title":"F I J I (Original Mix)","index":{"time":"23:09:00","frames":104175,"seconds":1389,"lenseconds":539,"lentime":"08:59"}},{"performer":"Roman Rai","title":"Prague Stories","index":{"time":"32:08:00","frames":144600,"seconds":1928,"lenseconds":343,"lentime":"05:43"}},{"performer":"UMEK, Mike Vale","title":"All I Want (Dosem Remix)","index":{"time":"37:51:00","frames":170325,"seconds":2271,"lenseconds":279,"lentime":"04:39"}},{"performer":"Steve Slight","title":"Nine Thousand (Original mix)","index":{"time":"42:30:00","frames":191250,"seconds":2550,"lenseconds":379,"lentime":"06:19"}},{"performer":"Boris Brejcha","title":"Sad But True (Original mix)","index":{"time":"48:49:00","frames":219675,"seconds":2929,"lenseconds":423,"lentime":"07:03"}},{"performer":"Rolo Green","title":"Stanton Works (Original Mix) (JP Edit)","index":{"time":"55:52:00","frames":251400,"seconds":3352,"lenseconds":248,"lentime":"04:08"}}]}