Carefully constructed music sets for your aural pleasure
Aerodynamix 045 @ Frisky Radio September 2016 mixed by JuanP
Deep/Progressive House
1:00:00
deep, progressive house
SHOW TRACKLIST
SHOW CUESHEET
SHOW TXT PL

LOAD IN AUDIO PLAYER

1
John Johnson
Impact (Cid Inc. Remix) (JP Edit)
03:51
2
Dizharmonia
Emmanuel feat. Kled Mone (Clawz SG Remix)
06:23
3
Einmusik
Milky Way (Original Mix)
05:53
4
Blood Groove & Kikis vs. LTN
Both (Piramex Remix)
07:07
5
Masoud feat.Tara Louise
My Dreams (Vintage & Morelli Remix)
06:02
6
H.O.S.H.
Lunchtime (Original Mix)
07:04
7
Sasha
Pontiac (Club Mix)
09:00
8
Dario Nu?ez and David Vio
Sea Wind (Original mix)
05:30
9
deadmau5
Saved (Original Mix)
09:10
PERFORMER "VA [Mixed by JuanP]" TITLE "Aerodynamix 045 (September 2016) Frisky Radio" FILE "62-va-aerodynamix_045_mixed_by_juan_prada_friskyradio-sep2016.mp3" WAVE TRACK 01 AUDIO PERFORMER "John Johnson" TITLE "Impact (Cid Inc. Remix) (JP Edit)" INDEX 01 00:00:00 TRACK 02 AUDIO PERFORMER "Dizharmonia" TITLE "Emmanuel feat. Kled Mone (Clawz SG Remix)" INDEX 01 03:51:00 TRACK 03 AUDIO PERFORMER "Einmusik" TITLE "Milky Way (Original Mix)" INDEX 01 10:14:00 TRACK 04 AUDIO PERFORMER "Blood Groove & Kikis vs. LTN" TITLE "Both (Piramex Remix)" INDEX 01 16:07:00 TRACK 05 AUDIO PERFORMER "Masoud feat.Tara Louise" TITLE "My Dreams (Vintage & Morelli Remix)" INDEX 01 23:14:00 TRACK 06 AUDIO PERFORMER "H.O.S.H." TITLE "Lunchtime (Original Mix)" INDEX 01 29:16:00 TRACK 07 AUDIO PERFORMER "Sasha" TITLE "Pontiac (Club Mix)" INDEX 01 36:20:00 TRACK 08 AUDIO PERFORMER "Dario Nu?ez and David Vio" TITLE "Sea Wind (Original mix)" INDEX 01 45:20:00 TRACK 09 AUDIO PERFORMER "deadmau5" TITLE "Saved (Original Mix)" INDEX 01 50:50:00
01 John Johnson - Impact (Cid Inc. Remix) (JP Edit) 00:00 02 Dizharmonia - Emmanuel feat. Kled Mone (Clawz SG Remix) 03:51 03 Einmusik - Milky Way (Original Mix) 10:14 04 Blood Groove & Kikis vs. LTN - Both (Piramex Remix) 16:07 05 Masoud feat.Tara Louise - My Dreams (Vintage & Morelli Remix) 23:14 06 H.O.S.H. - Lunchtime (Original Mix) 29:16 07 Sasha - Pontiac (Club Mix) 36:20 08 Dario Nu?ez and David Vio - Sea Wind (Original mix) 45:20 09 deadmau5 - Saved (Original Mix) 50:50
Aerodynamix 045 @ Frisky Radio September 2016 mixed by JuanPdata/62-va-aerodynamix_045_mixed_by_juan_prada_friskyradio-sep2016-500px.pngdata/62-va-aerodynamix_045_mixed_by_juan_prada_friskyradio-sep2016.mp3data/62-va-aerodynamix_045_mixed_by_juan_prada_friskyradio-sep2016.ogg
{"Cuesheet":{"performer":"VA [Mixed by JuanP]","title":"Aerodynamix 045 (September 2016) Frisky Radio","file":"62-va-aerodynamix_045_mixed_by_juan_prada_friskyradio-sep2016.mp3"},"Track":[{"performer":"John Johnson","title":"Impact (Cid Inc. Remix) (JP Edit)","index":{"time":"00:00:00","frames":0,"seconds":0,"lenseconds":231,"lentime":"03:51"}},{"performer":"Dizharmonia","title":"Emmanuel feat. Kled Mone (Clawz SG Remix)","index":{"time":"03:51:00","frames":17325,"seconds":231,"lenseconds":383,"lentime":"06:23"}},{"performer":"Einmusik","title":"Milky Way (Original Mix)","index":{"time":"10:14:00","frames":46050,"seconds":614,"lenseconds":353,"lentime":"05:53"}},{"performer":"Blood Groove & Kikis vs. LTN","title":"Both (Piramex Remix)","index":{"time":"16:07:00","frames":72525,"seconds":967,"lenseconds":427,"lentime":"07:07"}},{"performer":"Masoud feat.Tara Louise","title":"My Dreams (Vintage & Morelli Remix)","index":{"time":"23:14:00","frames":104550,"seconds":1394,"lenseconds":362,"lentime":"06:02"}},{"performer":"H.O.S.H.","title":"Lunchtime (Original Mix)","index":{"time":"29:16:00","frames":131700,"seconds":1756,"lenseconds":424,"lentime":"07:04"}},{"performer":"Sasha","title":"Pontiac (Club Mix)","index":{"time":"36:20:00","frames":163500,"seconds":2180,"lenseconds":540,"lentime":"09:00"}},{"performer":"Dario Nu?ez and David Vio","title":"Sea Wind (Original mix)","index":{"time":"45:20:00","frames":204000,"seconds":2720,"lenseconds":330,"lentime":"05:30"}},{"performer":"deadmau5","title":"Saved (Original Mix)","index":{"time":"50:50:00","frames":228750,"seconds":3050,"lenseconds":550,"lentime":"09:10"}}]}