Carefully constructed music sets for your aural pleasure
Aerodynamix 043 @ Frisky Radio July 2016 mixed by JuanP
Deep / Progressive House
1:00:00
deep / progressive house
SHOW TRACKLIST
SHOW CUESHEET
SHOW TXT PL

LOAD IN AUDIO PLAYER

1
Claes Rosen
The More I See (Original Mix)
07:04
2
Allies For Everyone
Offshore
05:52
3
Chicola
Childhood (Hernan Cattaneo & Soundexile Remix)
07:28
4
Same K & Stendahl
Body Language (LTN Extended Remix)
04:29
5
Matt Fax
Careless (Extended Mix)
06:37
6
Shingo Nakamura
Hakodate (Denis Laurent Remix)
03:40
7
Microvibez
New Life (Darin Epsilon Remix)
06:47
8
Coqui Selection and Andr? Vicenzzo
My Feelings
05:12
9
Mango
Citylanes Airplanes (KIWAMU vs. Tokyo Bay Cruise Remix)
05:42
10
Michael & Levan and Stiven Rivic vs. Desaturate
Trauma (Cid Inc. Remix)
07:09
PERFORMER "VA [Mixed by JuanP]" TITLE "Aerodynamix 043 (July 2016) Frisky Radio" FILE "60-va-aerodynamix_043_mixed_by_juan_prada_friskyradio-jul2016.mp3" WAVE TRACK 01 AUDIO PERFORMER "Claes Rosen" TITLE "The More I See (Original Mix)" INDEX 01 00:00:00 TRACK 02 AUDIO PERFORMER "Allies For Everyone" TITLE "Offshore" INDEX 01 07:04:00 TRACK 03 AUDIO PERFORMER "Chicola" TITLE "Childhood (Hernan Cattaneo & Soundexile Remix)" INDEX 01 12:56:00 TRACK 04 AUDIO PERFORMER "Same K & Stendahl" TITLE "Body Language (LTN Extended Remix)" INDEX 01 20:24:00 TRACK 05 AUDIO PERFORMER "Matt Fax" TITLE "Careless (Extended Mix)" INDEX 01 24:53:00 TRACK 06 AUDIO PERFORMER "Shingo Nakamura" TITLE "Hakodate (Denis Laurent Remix)" INDEX 01 31:30:00 TRACK 07 AUDIO PERFORMER "Microvibez" TITLE "New Life (Darin Epsilon Remix)" INDEX 01 35:10:00 TRACK 08 AUDIO PERFORMER "Coqui Selection and Andr? Vicenzzo" TITLE "My Feelings" INDEX 01 41:57:00 TRACK 09 AUDIO PERFORMER "Mango" TITLE "Citylanes Airplanes (KIWAMU vs. Tokyo Bay Cruise Remix)" INDEX 01 47:09:00 TRACK 10 AUDIO PERFORMER "Michael & Levan and Stiven Rivic vs. Desaturate" TITLE "Trauma (Cid Inc. Remix)" INDEX 01 52:51:00
01 Claes Rosen - The More I See (Original Mix) 00:00 02 Allies For Everyone - Offshore 07:04 03 Chicola - Childhood (Hernan Cattaneo & Soundexile Remix) 12:56 04 Same K & Stendahl - Body Language (LTN Extended Remix) 20:24 05 Matt Fax - Careless (Extended Mix) 24:53 06 Shingo Nakamura - Hakodate (Denis Laurent Remix) 31:30 07 Microvibez - New Life (Darin Epsilon Remix) 35:10 08 Coqui Selection and Andr? Vicenzzo - My Feelings 41:57 09 Mango - Citylanes Airplanes (KIWAMU vs. Tokyo Bay Cruise Remix) 47:09 10 Michael & Levan and Stiven Rivic vs. Desaturate - Trauma (Cid Inc. Remix) 52:51
Aerodynamix 043 @ Frisky Radio July 2016 mixed by JuanPdata/60-va-aerodynamix_043_mixed_by_juan_prada_friskyradio-jul2016-500px.pngdata/60-va-aerodynamix_043_mixed_by_juan_prada_friskyradio-jul2016.mp3data/60-va-aerodynamix_043_mixed_by_juan_prada_friskyradio-jul2016.ogg
{"Cuesheet":{"performer":"VA [Mixed by JuanP]","title":"Aerodynamix 043 (July 2016) Frisky Radio","file":"60-va-aerodynamix_043_mixed_by_juan_prada_friskyradio-jul2016.mp3"},"Track":[{"performer":"Claes Rosen","title":"The More I See (Original Mix)","index":{"time":"00:00:00","frames":0,"seconds":0,"lenseconds":424,"lentime":"07:04"}},{"performer":"Allies For Everyone","title":"Offshore","index":{"time":"07:04:00","frames":31800,"seconds":424,"lenseconds":352,"lentime":"05:52"}},{"performer":"Chicola","title":"Childhood (Hernan Cattaneo & Soundexile Remix)","index":{"time":"12:56:00","frames":58200,"seconds":776,"lenseconds":448,"lentime":"07:28"}},{"performer":"Same K & Stendahl","title":"Body Language (LTN Extended Remix)","index":{"time":"20:24:00","frames":91800,"seconds":1224,"lenseconds":269,"lentime":"04:29"}},{"performer":"Matt Fax","title":"Careless (Extended Mix)","index":{"time":"24:53:00","frames":111975,"seconds":1493,"lenseconds":397,"lentime":"06:37"}},{"performer":"Shingo Nakamura","title":"Hakodate (Denis Laurent Remix)","index":{"time":"31:30:00","frames":141750,"seconds":1890,"lenseconds":220,"lentime":"03:40"}},{"performer":"Microvibez","title":"New Life (Darin Epsilon Remix)","index":{"time":"35:10:00","frames":158250,"seconds":2110,"lenseconds":407,"lentime":"06:47"}},{"performer":"Coqui Selection and Andr? Vicenzzo","title":"My Feelings","index":{"time":"41:57:00","frames":188775,"seconds":2517,"lenseconds":312,"lentime":"05:12"}},{"performer":"Mango","title":"Citylanes Airplanes (KIWAMU vs. Tokyo Bay Cruise Remix)","index":{"time":"47:09:00","frames":212175,"seconds":2829,"lenseconds":342,"lentime":"05:42"}},{"performer":"Michael & Levan and Stiven Rivic vs. Desaturate","title":"Trauma (Cid Inc. Remix)","index":{"time":"52:51:00","frames":237825,"seconds":3171,"lenseconds":429,"lentime":"07:09"}}]}