Carefully constructed music sets for your aural pleasure
Aerodynamix 042 @ Frisky Radio June 2016 mixed by JuanP
Progressive House
1:00:00
progressive house
SHOW TRACKLIST
SHOW CUESHEET
SHOW TXT PL

LOAD IN AUDIO PLAYER

1
Groven & Naz
Ozymandias (Blusoul Inside the Light Remix)
06:50
2
Khen
Never Lose Your Innocence (Original Mix)
05:25
3
Chaty & Tamez
Quintal
06:43
4
Jennifer Rene, Solid Stone
Pushing Up (Original Mix)
04:15
5
MdM
Venus (Alfonso Muchacho Remix)
07:10
6
Mango & Embliss
Heiligenstadt (Sundriver Remix)
06:14
7
Tim Mason
Nothing More (Original Mix)
05:22
8
deadmau5
Desynchronized
05:08
9
Ilan Bluestone And Maor Levi Ft Jeza
Dynamic (Original Mix)
04:19
10
LTN
Autumn Leaves (Sunny Lax Remix)
05:15
11
Max Graham
Moonchild (Original Mix) (Edit)
03:19
PERFORMER "VA [Mixed by JuanP]" TITLE "Aerodynamix 042 (June 2016) Frisky Radio" FILE "59-va-aerodynamix_042_mixed_by_juan_prada_friskyradio-jun2016.mp3" WAVE TRACK 01 AUDIO PERFORMER "Groven & Naz" TITLE "Ozymandias (Blusoul Inside the Light Remix)" INDEX 01 00:00:00 TRACK 02 AUDIO PERFORMER "Khen" TITLE "Never Lose Your Innocence (Original Mix)" INDEX 01 06:50:00 TRACK 03 AUDIO PERFORMER "Chaty & Tamez" TITLE "Quintal" INDEX 01 12:15:00 TRACK 04 AUDIO PERFORMER "Jennifer Rene, Solid Stone" TITLE "Pushing Up (Original Mix)" INDEX 01 18:58:00 TRACK 05 AUDIO PERFORMER "MdM" TITLE "Venus (Alfonso Muchacho Remix)" INDEX 01 23:13:00 TRACK 06 AUDIO PERFORMER "Mango & Embliss" TITLE "Heiligenstadt (Sundriver Remix)" INDEX 01 30:23:00 TRACK 07 AUDIO PERFORMER "Tim Mason" TITLE "Nothing More (Original Mix)" INDEX 01 36:37:00 TRACK 08 AUDIO PERFORMER "deadmau5" TITLE "Desynchronized" INDEX 01 41:59:00 TRACK 09 AUDIO PERFORMER "Ilan Bluestone And Maor Levi Ft Jeza" TITLE "Dynamic (Original Mix)" INDEX 01 47:07:00 TRACK 10 AUDIO PERFORMER "LTN" TITLE "Autumn Leaves (Sunny Lax Remix)" INDEX 01 51:26:00 TRACK 11 AUDIO PERFORMER "Max Graham" TITLE "Moonchild (Original Mix) (Edit)" INDEX 01 56:41:00
01 Groven & Naz - Ozymandias (Blusoul Inside the Light Remix) 00:00 02 Khen - Never Lose Your Innocence (Original Mix) 06:50 03 Chaty & Tamez - Quintal 12:15 04 Jennifer Rene, Solid Stone - Pushing Up (Original Mix) 18:58 05 MdM - Venus (Alfonso Muchacho Remix) 23:13 06 Mango & Embliss - Heiligenstadt (Sundriver Remix) 30:23 07 Tim Mason - Nothing More (Original Mix) 36:37 08 deadmau5 - Desynchronized 41:59 09 Ilan Bluestone And Maor Levi Ft Jeza - Dynamic (Original Mix) 47:07 10 LTN - Autumn Leaves (Sunny Lax Remix) 51:26 11 Max Graham - Moonchild (Original Mix) (Edit) 56:41
Aerodynamix 042 @ Frisky Radio June 2016 mixed by JuanPdata/59-va-aerodynamix_042_mixed_by_juan_prada_friskyradio-jun2016-500px.pngdata/59-va-aerodynamix_042_mixed_by_juan_prada_friskyradio-jun2016.mp3data/59-va-aerodynamix_042_mixed_by_juan_prada_friskyradio-jun2016.ogg
{"Cuesheet":{"performer":"VA [Mixed by JuanP]","title":"Aerodynamix 042 (June 2016) Frisky Radio","file":"59-va-aerodynamix_042_mixed_by_juan_prada_friskyradio-jun2016.mp3"},"Track":[{"performer":"Groven & Naz","title":"Ozymandias (Blusoul Inside the Light Remix)","index":{"time":"00:00:00","frames":0,"seconds":0,"lenseconds":410,"lentime":"06:50"}},{"performer":"Khen","title":"Never Lose Your Innocence (Original Mix)","index":{"time":"06:50:00","frames":30750,"seconds":410,"lenseconds":325,"lentime":"05:25"}},{"performer":"Chaty & Tamez","title":"Quintal","index":{"time":"12:15:00","frames":55125,"seconds":735,"lenseconds":403,"lentime":"06:43"}},{"performer":"Jennifer Rene, Solid Stone","title":"Pushing Up (Original Mix)","index":{"time":"18:58:00","frames":85350,"seconds":1138,"lenseconds":255,"lentime":"04:15"}},{"performer":"MdM","title":"Venus (Alfonso Muchacho Remix)","index":{"time":"23:13:00","frames":104475,"seconds":1393,"lenseconds":430,"lentime":"07:10"}},{"performer":"Mango & Embliss","title":"Heiligenstadt (Sundriver Remix)","index":{"time":"30:23:00","frames":136725,"seconds":1823,"lenseconds":374,"lentime":"06:14"}},{"performer":"Tim Mason","title":"Nothing More (Original Mix)","index":{"time":"36:37:00","frames":164775,"seconds":2197,"lenseconds":322,"lentime":"05:22"}},{"performer":"deadmau5","title":"Desynchronized","index":{"time":"41:59:00","frames":188925,"seconds":2519,"lenseconds":308,"lentime":"05:08"}},{"performer":"Ilan Bluestone And Maor Levi Ft Jeza","title":"Dynamic (Original Mix)","index":{"time":"47:07:00","frames":212025,"seconds":2827,"lenseconds":259,"lentime":"04:19"}},{"performer":"LTN","title":"Autumn Leaves (Sunny Lax Remix)","index":{"time":"51:26:00","frames":231450,"seconds":3086,"lenseconds":315,"lentime":"05:15"}},{"performer":"Max Graham","title":"Moonchild (Original Mix) (Edit)","index":{"time":"56:41:00","frames":255075,"seconds":3401,"lenseconds":199,"lentime":"03:19"}}]}