Carefully constructed music sets for your aural pleasure
Aerodynamix 040 @ Frisky Radio April 2016 mixed by JuanP
Nu Disco / Progressive House
1:00:00
nu disco, progressive house
SHOW TRACKLIST
SHOW CUESHEET
SHOW TXT PL

LOAD IN AUDIO PLAYER

1
Way Out West
Tuesday Maybe (Original Mix)
07:36
2
Tapetenwechsel
Feel You (Original Mix)
04:33
3
Sirens Of Lesbos
Long Days, Hot Nights (Claptone Remix)
05:13
4
Our Stolen Theory
Godzilla Watch (LTN Dub Remix)
04:09
5
Sono
Twist in My Sobriety
03:08
6
Kotelett & Zadak
Crave Dave (Original Mix)
05:08
7
Royksopp
Here She Comes Again (DJ Antonio Remix)
03:36
8
Derek Howell & Peter Martin
Ode To That Long Night (Original Mix)
06:51
9
Kobana
Hear The Colors (Matt Fax Remix)
06:36
10
Ramil O Shawa feat. Nina Sung
Pure Gold (Jerome Isma-Ae Remix)
03:45
11
EDU
For The Mind (Original Mix)
05:15
12
Infected Mushroom
Fields of Grey (feat. Sasha Grey)
04:10
PERFORMER "VA [Mixed by JuanP]" TITLE "Aerodynamix 040 (April 2016) Frisky Radio" FILE "57-va-aerodynamix_040_mixed_by_juan_prada_friskyradio-apr2016.mp3" WAVE TRACK 01 AUDIO PERFORMER "Way Out West" TITLE "Tuesday Maybe (Original Mix)" INDEX 01 00:00:00 TRACK 02 AUDIO PERFORMER "Tapetenwechsel" TITLE "Feel You (Original Mix)" INDEX 01 07:36:00 TRACK 03 AUDIO PERFORMER "Sirens Of Lesbos" TITLE "Long Days, Hot Nights (Claptone Remix)" INDEX 01 12:09:00 TRACK 04 AUDIO PERFORMER "Our Stolen Theory" TITLE "Godzilla Watch (LTN Dub Remix)" INDEX 01 17:22:00 TRACK 05 AUDIO PERFORMER "Sono" TITLE "Twist in My Sobriety" INDEX 01 21:31:00 TRACK 06 AUDIO PERFORMER "Kotelett & Zadak" TITLE "Crave Dave (Original Mix)" INDEX 01 24:39:00 TRACK 07 AUDIO PERFORMER "Royksopp" TITLE "Here She Comes Again (DJ Antonio Remix)" INDEX 01 29:47:00 TRACK 08 AUDIO PERFORMER "Derek Howell & Peter Martin" TITLE "Ode To That Long Night (Original Mix)" INDEX 01 33:23:00 TRACK 09 AUDIO PERFORMER "Kobana" TITLE "Hear The Colors (Matt Fax Remix)" INDEX 01 40:14:00 TRACK 10 AUDIO PERFORMER "Ramil O Shawa feat. Nina Sung" TITLE "Pure Gold (Jerome Isma-Ae Remix)" INDEX 01 46:50:00 TRACK 11 AUDIO PERFORMER "EDU" TITLE "For The Mind (Original Mix)" INDEX 01 50:35:00 TRACK 12 AUDIO PERFORMER "Infected Mushroom" TITLE "Fields of Grey (feat. Sasha Grey)" INDEX 01 55:50:00
01 Way Out West - Tuesday Maybe (Original Mix) 00:00 02 Tapetenwechsel - Feel You (Original Mix) 07:36 03 Sirens Of Lesbos - Long Days, Hot Nights (Claptone Remix) 12:09 04 Our Stolen Theory - Godzilla Watch (LTN Dub Remix) 17:22 05 Sono - Twist in My Sobriety 21:31 06 Kotelett & Zadak - Crave Dave (Original Mix) 24:39 07 Royksopp - Here She Comes Again (DJ Antonio Remix) 29:47 08 Derek Howell & Peter Martin - Ode To That Long Night (Original Mix) 33:23 09 Kobana - Hear The Colors (Matt Fax Remix) 40:14 10 Ramil O Shawa feat. Nina Sung - Pure Gold (Jerome Isma-Ae Remix) 46:50 11 EDU - For The Mind (Original Mix) 50:35 12 Infected Mushroom - Fields of Grey (feat. Sasha Grey) 55:50
Aerodynamix 040 @ Frisky Radio April 2016 mixed by JuanPdata/57-va-aerodynamix_040_mixed_by_juan_prada_friskyradio-apr2016-500px.pngdata/57-va-aerodynamix_040_mixed_by_juan_prada_friskyradio-apr2016.mp3data/57-va-aerodynamix_040_mixed_by_juan_prada_friskyradio-apr2016.ogg
{"Cuesheet":{"performer":"VA [Mixed by JuanP]","title":"Aerodynamix 040 (April 2016) Frisky Radio","file":"57-va-aerodynamix_040_mixed_by_juan_prada_friskyradio-apr2016.mp3"},"Track":[{"performer":"Way Out West","title":"Tuesday Maybe (Original Mix)","index":{"time":"00:00:00","frames":0,"seconds":0,"lenseconds":456,"lentime":"07:36"}},{"performer":"Tapetenwechsel","title":"Feel You (Original Mix)","index":{"time":"07:36:00","frames":34200,"seconds":456,"lenseconds":273,"lentime":"04:33"}},{"performer":"Sirens Of Lesbos","title":"Long Days, Hot Nights (Claptone Remix)","index":{"time":"12:09:00","frames":54675,"seconds":729,"lenseconds":313,"lentime":"05:13"}},{"performer":"Our Stolen Theory","title":"Godzilla Watch (LTN Dub Remix)","index":{"time":"17:22:00","frames":78150,"seconds":1042,"lenseconds":249,"lentime":"04:09"}},{"performer":"Sono","title":"Twist in My Sobriety","index":{"time":"21:31:00","frames":96825,"seconds":1291,"lenseconds":188,"lentime":"03:08"}},{"performer":"Kotelett & Zadak","title":"Crave Dave (Original Mix)","index":{"time":"24:39:00","frames":110925,"seconds":1479,"lenseconds":308,"lentime":"05:08"}},{"performer":"Royksopp","title":"Here She Comes Again (DJ Antonio Remix)","index":{"time":"29:47:00","frames":134025,"seconds":1787,"lenseconds":216,"lentime":"03:36"}},{"performer":"Derek Howell & Peter Martin","title":"Ode To That Long Night (Original Mix)","index":{"time":"33:23:00","frames":150225,"seconds":2003,"lenseconds":411,"lentime":"06:51"}},{"performer":"Kobana","title":"Hear The Colors (Matt Fax Remix)","index":{"time":"40:14:00","frames":181050,"seconds":2414,"lenseconds":396,"lentime":"06:36"}},{"performer":"Ramil O Shawa feat. Nina Sung","title":"Pure Gold (Jerome Isma-Ae Remix)","index":{"time":"46:50:00","frames":210750,"seconds":2810,"lenseconds":225,"lentime":"03:45"}},{"performer":"EDU","title":"For The Mind (Original Mix)","index":{"time":"50:35:00","frames":227625,"seconds":3035,"lenseconds":315,"lentime":"05:15"}},{"performer":"Infected Mushroom","title":"Fields of Grey (feat. Sasha Grey)","index":{"time":"55:50:00","frames":251250,"seconds":3350,"lenseconds":250,"lentime":"04:10"}}]}