Carefully constructed music sets for your aural pleasure
Aerodynamix 039 @ Frisky Radio March 2016 mixed by JuanP
Nu Disco / Progressive House
1:00:00
nu disco, progressive house
SHOW TRACKLIST
SHOW CUESHEET
SHOW TXT PL

LOAD IN AUDIO PLAYER

1
Lauer
ByBy (Fort Romeau Remix)
05:59
2
Henry Saiz
The Light (Bruna Remix)
07:23
3
Louis Tan
Let Me Drive (Original Mix)
03:43
4
Late Night Alumni
Ring a Bell
03:20
5
West.K feat Cotry
Be My Lover (Liva K Remix)
05:05
6
Duke Dumont
Ocean Drive (Groovefore & Neevald Remix)
03:54
7
Pretty Pink
Gunfire feat. Janine Villforth
04:36
8
RUFUS
Innerbloom
08:55
9
Dezza
Brit (Original Mix)
04:26
10
PROFF
Joy Is Pain
04:36
11
Oliver Smith
Your Love (Original Mix)
03:35
12
Mono Suono
Get Up (Original Mix)
04:28
PERFORMER "VA [Mixed by JuanP]" TITLE "Aerodynamix 039 (March 2016) Frisky Radio" FILE "56-va-aerodynamix_039_mixed_by_juan_prada_friskyradio-mar2016.mp3" WAVE TRACK 01 AUDIO PERFORMER "Lauer" TITLE "ByBy (Fort Romeau Remix)" INDEX 01 00:00:00 TRACK 02 AUDIO PERFORMER "Henry Saiz" TITLE "The Light (Bruna Remix)" INDEX 01 05:59:00 TRACK 03 AUDIO PERFORMER "Louis Tan" TITLE "Let Me Drive (Original Mix)" INDEX 01 13:22:00 TRACK 04 AUDIO PERFORMER "Late Night Alumni" TITLE "Ring a Bell" INDEX 01 17:05:00 TRACK 05 AUDIO PERFORMER "West.K feat Cotry" TITLE "Be My Lover (Liva K Remix)" INDEX 01 20:25:00 TRACK 06 AUDIO PERFORMER "Duke Dumont" TITLE "Ocean Drive (Groovefore & Neevald Remix)" INDEX 01 25:30:00 TRACK 07 AUDIO PERFORMER "Pretty Pink" TITLE "Gunfire feat. Janine Villforth" INDEX 01 29:24:00 TRACK 08 AUDIO PERFORMER "RUFUS" TITLE "Innerbloom" INDEX 01 34:00:00 TRACK 09 AUDIO PERFORMER "Dezza" TITLE "Brit (Original Mix)" INDEX 01 42:55:00 TRACK 10 AUDIO PERFORMER "PROFF" TITLE "Joy Is Pain" INDEX 01 47:21:00 TRACK 11 AUDIO PERFORMER "Oliver Smith" TITLE "Your Love (Original Mix)" INDEX 01 51:57:00 TRACK 12 AUDIO PERFORMER "Mono Suono" TITLE "Get Up (Original Mix)" INDEX 01 55:32:00
01 Lauer - ByBy (Fort Romeau Remix) 00:00 02 Henry Saiz - The Light (Bruna Remix) 05:59 03 Louis Tan - Let Me Drive (Original Mix) 13:22 04 Late Night Alumni - Ring a Bell 17:05 05 West.K feat Cotry - Be My Lover (Liva K Remix) 20:25 06 Duke Dumont - Ocean Drive (Groovefore & Neevald Remix) 25:30 07 Pretty Pink - Gunfire feat. Janine Villforth 29:24 08 RUFUS - Innerbloom 34:00 09 Dezza - Brit (Original Mix) 42:55 10 PROFF - Joy Is Pain 47:21 11 Oliver Smith - Your Love (Original Mix) 51:57 12 Mono Suono - Get Up (Original Mix) 55:32
Aerodynamix 039 @ Frisky Radio March 2016 mixed by JuanPdata/56-va-aerodynamix_039_mixed_by_juan_prada_friskyradio-mar2016-500px.pngdata/56-va-aerodynamix_039_mixed_by_juan_prada_friskyradio-mar2016.mp3data/56-va-aerodynamix_039_mixed_by_juan_prada_friskyradio-mar2016.ogg
{"Cuesheet":{"performer":"VA [Mixed by JuanP]","title":"Aerodynamix 039 (March 2016) Frisky Radio","file":"56-va-aerodynamix_039_mixed_by_juan_prada_friskyradio-mar2016.mp3"},"Track":[{"performer":"Lauer","title":"ByBy (Fort Romeau Remix)","index":{"time":"00:00:00","frames":0,"seconds":0,"lenseconds":359,"lentime":"05:59"}},{"performer":"Henry Saiz","title":"The Light (Bruna Remix)","index":{"time":"05:59:00","frames":26925,"seconds":359,"lenseconds":443,"lentime":"07:23"}},{"performer":"Louis Tan","title":"Let Me Drive (Original Mix)","index":{"time":"13:22:00","frames":60150,"seconds":802,"lenseconds":223,"lentime":"03:43"}},{"performer":"Late Night Alumni","title":"Ring a Bell","index":{"time":"17:05:00","frames":76875,"seconds":1025,"lenseconds":200,"lentime":"03:20"}},{"performer":"West.K feat Cotry","title":"Be My Lover (Liva K Remix)","index":{"time":"20:25:00","frames":91875,"seconds":1225,"lenseconds":305,"lentime":"05:05"}},{"performer":"Duke Dumont","title":"Ocean Drive (Groovefore & Neevald Remix)","index":{"time":"25:30:00","frames":114750,"seconds":1530,"lenseconds":234,"lentime":"03:54"}},{"performer":"Pretty Pink","title":"Gunfire feat. Janine Villforth","index":{"time":"29:24:00","frames":132300,"seconds":1764,"lenseconds":276,"lentime":"04:36"}},{"performer":"RUFUS","title":"Innerbloom","index":{"time":"34:00:00","frames":153000,"seconds":2040,"lenseconds":535,"lentime":"08:55"}},{"performer":"Dezza","title":"Brit (Original Mix)","index":{"time":"42:55:00","frames":193125,"seconds":2575,"lenseconds":266,"lentime":"04:26"}},{"performer":"PROFF","title":"Joy Is Pain","index":{"time":"47:21:00","frames":213075,"seconds":2841,"lenseconds":276,"lentime":"04:36"}},{"performer":"Oliver Smith","title":"Your Love (Original Mix)","index":{"time":"51:57:00","frames":233775,"seconds":3117,"lenseconds":215,"lentime":"03:35"}},{"performer":"Mono Suono","title":"Get Up (Original Mix)","index":{"time":"55:32:00","frames":249900,"seconds":3332,"lenseconds":268,"lentime":"04:28"}}]}