Carefully constructed music sets for your aural pleasure
Aerodynamix 038 @ Frisky Radio February 2016 mixed by JuanP
Progressive House / Progressive Trance
1:00:00
progressive house, progressive trance
SHOW TRACKLIST
SHOW CUESHEET
SHOW TXT PL

LOAD IN AUDIO PLAYER

1
Guy Mantzur & Sahar Z
In The Beginning
06:24
2
Pinkbox Special
The French Don t Cry (Mango Prog Used To Be Special Remix)
07:25
3
Nigel Good
This Is Us (Matt Fax Remix)
06:13
4
Soundprank
Burner
06:32
5
Vintage & Morelli
Daydream (Shingo Nakamura Remix)
04:51
6
Adrian & Anhken
That One Moment (Arty Remix)
05:11
7
Eleven Five
Freckles (Luiz B Remix)
05:41
8
Approaching Black & Jacob Henry
Yesterday s Tears (Shingo Nakamura Remix)
06:49
9
ilan Bluestone
Cloudchaser (Original Mix)
04:00
10
Vintage & Morelli
Afterglow (Original Mix)
06:54
PERFORMER "VA [Mixed by JuanP]" TITLE "Aerodynamix 038 (February 2016) Frisky Radio" FILE "55-va-aerodynamix_038_mixed_by_juan_prada_friskyradio-feb2016.mp3" WAVE TRACK 01 AUDIO PERFORMER "Guy Mantzur & Sahar Z" TITLE "In The Beginning" INDEX 01 00:00:00 TRACK 02 AUDIO PERFORMER "Pinkbox Special" TITLE "The French Don t Cry (Mango Prog Used To Be Special Remix)" INDEX 01 06:24:00 TRACK 03 AUDIO PERFORMER "Nigel Good" TITLE "This Is Us (Matt Fax Remix)" INDEX 01 13:49:00 TRACK 04 AUDIO PERFORMER "Soundprank" TITLE "Burner" INDEX 01 20:02:00 TRACK 05 AUDIO PERFORMER "Vintage & Morelli" TITLE "Daydream (Shingo Nakamura Remix)" INDEX 01 26:34:00 TRACK 06 AUDIO PERFORMER "Adrian & Anhken" TITLE "That One Moment (Arty Remix)" INDEX 01 31:25:00 TRACK 07 AUDIO PERFORMER "Eleven Five" TITLE "Freckles (Luiz B Remix)" INDEX 01 36:36:00 TRACK 08 AUDIO PERFORMER "Approaching Black & Jacob Henry" TITLE "Yesterday s Tears (Shingo Nakamura Remix)" INDEX 01 42:17:00 TRACK 09 AUDIO PERFORMER "ilan Bluestone" TITLE "Cloudchaser (Original Mix)" INDEX 01 49:06:00 TRACK 10 AUDIO PERFORMER "Vintage & Morelli" TITLE "Afterglow (Original Mix)" INDEX 01 53:06:00
01 Guy Mantzur & Sahar Z - In The Beginning 00:00 02 Pinkbox Special - The French Don t Cry (Mango Prog Used To Be Special Remix) 06:24 03 Nigel Good - This Is Us (Matt Fax Remix) 13:49 04 Soundprank - Burner 20:02 05 Vintage & Morelli - Daydream (Shingo Nakamura Remix) 26:34 06 Adrian & Anhken - That One Moment (Arty Remix) 31:25 07 Eleven Five - Freckles (Luiz B Remix) 36:36 08 Approaching Black & Jacob Henry - Yesterday s Tears (Shingo Nakamura Remix) 42:17 09 ilan Bluestone - Cloudchaser (Original Mix) 49:06 10 Vintage & Morelli - Afterglow (Original Mix) 53:06
Aerodynamix 038 @ Frisky Radio February 2016 mixed by JuanPdata/55-va-aerodynamix_038_mixed_by_juan_prada_friskyradio-feb2016-500px.pngdata/55-va-aerodynamix_038_mixed_by_juan_prada_friskyradio-feb2016.mp3data/55-va-aerodynamix_038_mixed_by_juan_prada_friskyradio-feb2016.ogg
{"Cuesheet":{"performer":"VA [Mixed by JuanP]","title":"Aerodynamix 038 (February 2016) Frisky Radio","file":"55-va-aerodynamix_038_mixed_by_juan_prada_friskyradio-feb2016.mp3"},"Track":[{"performer":"Guy Mantzur & Sahar Z","title":"In The Beginning","index":{"time":"00:00:00","frames":0,"seconds":0,"lenseconds":384,"lentime":"06:24"}},{"performer":"Pinkbox Special","title":"The French Don t Cry (Mango Prog Used To Be Special Remix)","index":{"time":"06:24:00","frames":28800,"seconds":384,"lenseconds":445,"lentime":"07:25"}},{"performer":"Nigel Good","title":"This Is Us (Matt Fax Remix)","index":{"time":"13:49:00","frames":62175,"seconds":829,"lenseconds":373,"lentime":"06:13"}},{"performer":"Soundprank","title":"Burner","index":{"time":"20:02:00","frames":90150,"seconds":1202,"lenseconds":392,"lentime":"06:32"}},{"performer":"Vintage & Morelli","title":"Daydream (Shingo Nakamura Remix)","index":{"time":"26:34:00","frames":119550,"seconds":1594,"lenseconds":291,"lentime":"04:51"}},{"performer":"Adrian & Anhken","title":"That One Moment (Arty Remix)","index":{"time":"31:25:00","frames":141375,"seconds":1885,"lenseconds":311,"lentime":"05:11"}},{"performer":"Eleven Five","title":"Freckles (Luiz B Remix)","index":{"time":"36:36:00","frames":164700,"seconds":2196,"lenseconds":341,"lentime":"05:41"}},{"performer":"Approaching Black & Jacob Henry","title":"Yesterday s Tears (Shingo Nakamura Remix)","index":{"time":"42:17:00","frames":190275,"seconds":2537,"lenseconds":409,"lentime":"06:49"}},{"performer":"ilan Bluestone","title":"Cloudchaser (Original Mix)","index":{"time":"49:06:00","frames":220950,"seconds":2946,"lenseconds":240,"lentime":"04:00"}},{"performer":"Vintage & Morelli","title":"Afterglow (Original Mix)","index":{"time":"53:06:00","frames":238950,"seconds":3186,"lenseconds":414,"lentime":"06:54"}}]}