Carefully constructed music sets for your aural pleasure
Aerodynamix 036 @ Frisky Radio December 2015 mixed by JuanP
Nu Disco, Deep House
1:00:00
nu disco, deep house
SHOW TRACKLIST
SHOW CUESHEET
SHOW TXT PL

LOAD IN AUDIO PLAYER

1
Ismael Miranda
Me Voy Ahora (Joaquin Joe Claussell Remix) (Edit)
04:59
2
Rah Band
Clouds across the Moon (Napoleon Remix)
04:21
3
Matt Hanzi
I Miss You (Juloboy Remix)
04:53
4
Shameboy, Max Marshall
Trippin (Mickey Remix)
04:39
5
James Newton Howard ft. Jennifer Lawrence
Hanging Tree (Eelke Kleijn Bootleg)
06:34
6
16 Bit Lolitas
Not The Only One (Original Mix)
04:17
7
Ten Walls
Requiem (Original Mix)
04:48
8
Jody Wisternoff feat. Sian Evans
The Bridge (Original Mix)
04:16
9
Bananarama
Cruel Summer (Henry Saiz Remix)
05:35
10
Daniel Melingo
Narigon (Radio Slave & Thomas Gandey El Duende Remake)
12:34
11
Gus Gus & Maceo Plex
Crossfade (Maceo Plex Remix)
03:04
PERFORMER "VA [Mixed by JuanP]" TITLE "Aerodynamix 036 (December 2015) Frisky Radio" FILE "53-va-aerodynamix_036_mixed_by_juan_prada_friskyradio-dec2015.mp3" WAVE TRACK 01 AUDIO PERFORMER "Ismael Miranda" TITLE "Me Voy Ahora (Joaquin Joe Claussell Remix) (Edit)" INDEX 01 00:00:00 TRACK 02 AUDIO PERFORMER "Rah Band" TITLE "Clouds across the Moon (Napoleon Remix)" INDEX 01 04:59:00 TRACK 03 AUDIO PERFORMER "Matt Hanzi" TITLE "I Miss You (Juloboy Remix)" INDEX 01 09:20:00 TRACK 04 AUDIO PERFORMER "Shameboy, Max Marshall" TITLE "Trippin (Mickey Remix)" INDEX 01 14:13:00 TRACK 05 AUDIO PERFORMER "James Newton Howard ft. Jennifer Lawrence" TITLE "Hanging Tree (Eelke Kleijn Bootleg)" INDEX 01 18:52:00 TRACK 06 AUDIO PERFORMER "16 Bit Lolitas" TITLE "Not The Only One (Original Mix)" INDEX 01 25:26:00 TRACK 07 AUDIO PERFORMER "Ten Walls" TITLE "Requiem (Original Mix)" INDEX 01 29:43:00 TRACK 08 AUDIO PERFORMER "Jody Wisternoff feat. Sian Evans" TITLE "The Bridge (Original Mix)" INDEX 01 34:31:00 TRACK 09 AUDIO PERFORMER "Bananarama" TITLE "Cruel Summer (Henry Saiz Remix)" INDEX 01 38:47:00 TRACK 10 AUDIO PERFORMER "Daniel Melingo" TITLE "Narigon (Radio Slave & Thomas Gandey El Duende Remake)" INDEX 01 44:22:00 TRACK 11 AUDIO PERFORMER "Gus Gus & Maceo Plex" TITLE "Crossfade (Maceo Plex Remix)" INDEX 01 56:56:00
01 Ismael Miranda - Me Voy Ahora (Joaquin Joe Claussell Remix) (Edit) 00:00 02 Rah Band - Clouds across the Moon (Napoleon Remix) 04:59 03 Matt Hanzi - I Miss You (Juloboy Remix) 09:20 04 Shameboy, Max Marshall - Trippin (Mickey Remix) 14:13 05 James Newton Howard ft. Jennifer Lawrence - Hanging Tree (Eelke Kleijn Bootleg) 18:52 06 16 Bit Lolitas - Not The Only One (Original Mix) 25:26 07 Ten Walls - Requiem (Original Mix) 29:43 08 Jody Wisternoff feat. Sian Evans - The Bridge (Original Mix) 34:31 09 Bananarama - Cruel Summer (Henry Saiz Remix) 38:47 10 Daniel Melingo - Narigon (Radio Slave & Thomas Gandey El Duende Remake) 44:22 11 Gus Gus & Maceo Plex - Crossfade (Maceo Plex Remix) 56:56
Aerodynamix 036 @ Frisky Radio December 2015 mixed by JuanPdata/53-va-aerodynamix_036_mixed_by_juan_prada_friskyradio-dec2015-500px.pngdata/53-va-aerodynamix_036_mixed_by_juan_prada_friskyradio-dec2015.mp3data/53-va-aerodynamix_036_mixed_by_juan_prada_friskyradio-dec2015.ogg
{"Cuesheet":{"performer":"VA [Mixed by JuanP]","title":"Aerodynamix 036 (December 2015) Frisky Radio","file":"53-va-aerodynamix_036_mixed_by_juan_prada_friskyradio-dec2015.mp3"},"Track":[{"performer":"Ismael Miranda","title":"Me Voy Ahora (Joaquin Joe Claussell Remix) (Edit)","index":{"time":"00:00:00","frames":0,"seconds":0,"lenseconds":299,"lentime":"04:59"}},{"performer":"Rah Band","title":"Clouds across the Moon (Napoleon Remix)","index":{"time":"04:59:00","frames":22425,"seconds":299,"lenseconds":261,"lentime":"04:21"}},{"performer":"Matt Hanzi","title":"I Miss You (Juloboy Remix)","index":{"time":"09:20:00","frames":42000,"seconds":560,"lenseconds":293,"lentime":"04:53"}},{"performer":"Shameboy, Max Marshall","title":"Trippin (Mickey Remix)","index":{"time":"14:13:00","frames":63975,"seconds":853,"lenseconds":279,"lentime":"04:39"}},{"performer":"James Newton Howard ft. Jennifer Lawrence","title":"Hanging Tree (Eelke Kleijn Bootleg)","index":{"time":"18:52:00","frames":84900,"seconds":1132,"lenseconds":394,"lentime":"06:34"}},{"performer":"16 Bit Lolitas","title":"Not The Only One (Original Mix)","index":{"time":"25:26:00","frames":114450,"seconds":1526,"lenseconds":257,"lentime":"04:17"}},{"performer":"Ten Walls","title":"Requiem (Original Mix)","index":{"time":"29:43:00","frames":133725,"seconds":1783,"lenseconds":288,"lentime":"04:48"}},{"performer":"Jody Wisternoff feat. Sian Evans","title":"The Bridge (Original Mix)","index":{"time":"34:31:00","frames":155325,"seconds":2071,"lenseconds":256,"lentime":"04:16"}},{"performer":"Bananarama","title":"Cruel Summer (Henry Saiz Remix)","index":{"time":"38:47:00","frames":174525,"seconds":2327,"lenseconds":335,"lentime":"05:35"}},{"performer":"Daniel Melingo","title":"Narigon (Radio Slave & Thomas Gandey El Duende Remake)","index":{"time":"44:22:00","frames":199650,"seconds":2662,"lenseconds":754,"lentime":"12:34"}},{"performer":"Gus Gus & Maceo Plex","title":"Crossfade (Maceo Plex Remix)","index":{"time":"56:56:00","frames":256200,"seconds":3416,"lenseconds":184,"lentime":"03:04"}}]}