Carefully constructed music sets for your aural pleasure
Aerodynamix 035 @ Frisky Radio November 2015 mixed by JuanP
Deep / Progressive House
1:00:00
deep house, progressive house
SHOW TRACKLIST
SHOW CUESHEET
SHOW TXT PL

LOAD IN AUDIO PLAYER

1
Attlas
Tiff s Theme (Original Mix)
06:22
2
One Million Toys
Sunrise Over Ike (Original Mix)
04:54
3
Jamie Stevens
My Tears Don't Help Me (Guy J Remix)
06:12
4
Hohberg
Losing Gravity
05:25
5
MUUI
Elsa (Original Mix)
06:10
6
SevenDoors
Movement Of Whale (Original Mix)
06:52
7
Moonbeam
Soulstring
05:48
8
Derek Howell
One Way (Shingo Nakamura Remix)
05:12
9
Pryda
Loving You (Original Mix)
06:21
10
Daft Punk
Horizon (Henry Saiz Remix) (JuanP Shameless Re_Remix)
06:44
PERFORMER "VA [Mixed by JuanP]" TITLE "Aerodynamix 035 (November 2015) Frisky Radio" FILE "52-va-aerodynamix_035_mixed_by_juan_prada_friskyradio-nov2015.mp3" WAVE TRACK 01 AUDIO PERFORMER "Attlas" TITLE "Tiff s Theme (Original Mix)" INDEX 01 00:00:00 TRACK 02 AUDIO PERFORMER "One Million Toys" TITLE "Sunrise Over Ike (Original Mix)" INDEX 01 06:22:00 TRACK 03 AUDIO PERFORMER "Jamie Stevens" TITLE "My Tears Don't Help Me (Guy J Remix)" INDEX 01 11:16:00 TRACK 04 AUDIO PERFORMER "Hohberg" TITLE "Losing Gravity" INDEX 01 17:28:00 TRACK 05 AUDIO PERFORMER "MUUI" TITLE "Elsa (Original Mix)" INDEX 01 22:53:00 TRACK 06 AUDIO PERFORMER "SevenDoors" TITLE "Movement Of Whale (Original Mix)" INDEX 01 29:03:00 TRACK 07 AUDIO PERFORMER "Moonbeam" TITLE "Soulstring" INDEX 01 35:55:00 TRACK 08 AUDIO PERFORMER "Derek Howell" TITLE "One Way (Shingo Nakamura Remix)" INDEX 01 41:43:00 TRACK 09 AUDIO PERFORMER "Pryda" TITLE "Loving You (Original Mix)" INDEX 01 46:55:00 TRACK 10 AUDIO PERFORMER "Daft Punk" TITLE "Horizon (Henry Saiz Remix) (JuanP Shameless Re_Remix)" INDEX 01 53:16:00
01 Attlas - Tiff s Theme (Original Mix) 00:00 02 One Million Toys - Sunrise Over Ike (Original Mix) 06:22 03 Jamie Stevens - My Tears Don't Help Me (Guy J Remix) 11:16 04 Hohberg - Losing Gravity 17:28 05 MUUI - Elsa (Original Mix) 22:53 06 SevenDoors - Movement Of Whale (Original Mix) 29:03 07 Moonbeam - Soulstring 35:55 08 Derek Howell - One Way (Shingo Nakamura Remix) 41:43 09 Pryda - Loving You (Original Mix) 46:55 10 Daft Punk - Horizon (Henry Saiz Remix) (JuanP Shameless Re_Remix) 53:16
Aerodynamix 035 @ Frisky Radio November 2015 mixed by JuanPdata/52-va-aerodynamix_035_mixed_by_juan_prada_friskyradio-nov2015-500px.pngdata/52-va-aerodynamix_035_mixed_by_juan_prada_friskyradio-nov2015.mp3data/52-va-aerodynamix_035_mixed_by_juan_prada_friskyradio-nov2015.ogg
{"Cuesheet":{"performer":"VA [Mixed by JuanP]","title":"Aerodynamix 035 (November 2015) Frisky Radio","file":"52-va-aerodynamix_035_mixed_by_juan_prada_friskyradio-nov2015.mp3"},"Track":[{"performer":"Attlas","title":"Tiff s Theme (Original Mix)","index":{"time":"00:00:00","frames":0,"seconds":0,"lenseconds":382,"lentime":"06:22"}},{"performer":"One Million Toys","title":"Sunrise Over Ike (Original Mix)","index":{"time":"06:22:00","frames":28650,"seconds":382,"lenseconds":294,"lentime":"04:54"}},{"performer":"Jamie Stevens","title":"My Tears Don't Help Me (Guy J Remix)","index":{"time":"11:16:00","frames":50700,"seconds":676,"lenseconds":372,"lentime":"06:12"}},{"performer":"Hohberg","title":"Losing Gravity","index":{"time":"17:28:00","frames":78600,"seconds":1048,"lenseconds":325,"lentime":"05:25"}},{"performer":"MUUI","title":"Elsa (Original Mix)","index":{"time":"22:53:00","frames":102975,"seconds":1373,"lenseconds":370,"lentime":"06:10"}},{"performer":"SevenDoors","title":"Movement Of Whale (Original Mix)","index":{"time":"29:03:00","frames":130725,"seconds":1743,"lenseconds":412,"lentime":"06:52"}},{"performer":"Moonbeam","title":"Soulstring","index":{"time":"35:55:00","frames":161625,"seconds":2155,"lenseconds":348,"lentime":"05:48"}},{"performer":"Derek Howell","title":"One Way (Shingo Nakamura Remix)","index":{"time":"41:43:00","frames":187725,"seconds":2503,"lenseconds":312,"lentime":"05:12"}},{"performer":"Pryda","title":"Loving You (Original Mix)","index":{"time":"46:55:00","frames":211125,"seconds":2815,"lenseconds":381,"lentime":"06:21"}},{"performer":"Daft Punk","title":"Horizon (Henry Saiz Remix) (JuanP Shameless Re_Remix)","index":{"time":"53:16:00","frames":239700,"seconds":3196,"lenseconds":404,"lentime":"06:44"}}]}