Carefully constructed music sets for your aural pleasure
Aerodynamix 034 @ Frisky Radio October 2015 mixed by JuanP
Techno
1:00:00
techno
SHOW TRACKLIST
SHOW CUESHEET
SHOW TXT PL

LOAD IN AUDIO PLAYER

1
Julian Jeweil
Meteorite (Original Mix)
04:09
2
Alan Fitzpatrick
Love Siren (Original Mix)
04:06
3
Jel Ford
Overcast (Original Mix)
04:52
4
Hidro
Roam (Dj Drako Remix)
03:43
5
Danny Tenaglia, Joseph Capriati
Dibiza Joseph (Capriati Remix)
04:36
6
Julian Jeweil
And We (Original Mix)
04:37
7
Alan Fitzpatrick
U said U (Original Mix)
03:35
8
Mattew Jay
Aries (Original Mix)
05:38
9
Carl Cox
The Nite Life (Filterheadz Remix)
04:05
10
Rafa Barrios Rob Hes
Samsa (Original Mix)
05:54
11
Filterheadz
Flow (Original Mix)
02:33
12
Reinier Zonneveld
Trackstomp (Original Mix)
04:06
13
Secret Cinema, Enrico Sangiuliano
Alone With The Bitch (Original Mix)
04:06
14
Victor Calderone
Mole (Original Mix)
04:00
PERFORMER "VA [Mixed by JuanP]" TITLE "Aerodynamix 034 (October 2015) Frisky Radio" FILE "51-va-aerodynamix_034_mixed_by_juan_prada_friskyradio-oct2015.mp3" WAVE TRACK 01 AUDIO PERFORMER "Julian Jeweil" TITLE "Meteorite (Original Mix)" INDEX 01 00:00:00 TRACK 02 AUDIO PERFORMER "Alan Fitzpatrick" TITLE "Love Siren (Original Mix)" INDEX 01 04:09:00 TRACK 03 AUDIO PERFORMER "Jel Ford" TITLE "Overcast (Original Mix)" INDEX 01 08:15:00 TRACK 04 AUDIO PERFORMER "Hidro" TITLE "Roam (Dj Drako Remix)" INDEX 01 13:07:00 TRACK 05 AUDIO PERFORMER "Danny Tenaglia, Joseph Capriati" TITLE "Dibiza Joseph (Capriati Remix)" INDEX 01 16:50:00 TRACK 06 AUDIO PERFORMER "Julian Jeweil" TITLE "And We (Original Mix)" INDEX 01 21:26:00 TRACK 07 AUDIO PERFORMER "Alan Fitzpatrick" TITLE "U said U (Original Mix)" INDEX 01 26:03:00 TRACK 08 AUDIO PERFORMER "Mattew Jay" TITLE "Aries (Original Mix)" INDEX 01 29:38:00 TRACK 09 AUDIO PERFORMER "Carl Cox" TITLE "The Nite Life (Filterheadz Remix)" INDEX 01 35:16:00 TRACK 10 AUDIO PERFORMER "Rafa Barrios Rob Hes" TITLE "Samsa (Original Mix)" INDEX 01 39:21:00 TRACK 11 AUDIO PERFORMER "Filterheadz" TITLE "Flow (Original Mix)" INDEX 01 45:15:00 TRACK 12 AUDIO PERFORMER "Reinier Zonneveld" TITLE "Trackstomp (Original Mix)" INDEX 01 47:48:00 TRACK 13 AUDIO PERFORMER "Secret Cinema, Enrico Sangiuliano" TITLE "Alone With The Bitch (Original Mix)" INDEX 01 51:54:00 TRACK 14 AUDIO PERFORMER "Victor Calderone" TITLE "Mole (Original Mix)" INDEX 01 56:00:00
01 Julian Jeweil - Meteorite (Original Mix) 00:00 02 Alan Fitzpatrick - Love Siren (Original Mix) 04:09 03 Jel Ford - Overcast (Original Mix) 08:15 04 Hidro - Roam (Dj Drako Remix) 13:07 05 Danny Tenaglia, Joseph Capriati - Dibiza Joseph (Capriati Remix) 16:50 06 Julian Jeweil - And We (Original Mix) 21:26 07 Alan Fitzpatrick - U said U (Original Mix) 26:03 08 Mattew Jay - Aries (Original Mix) 29:38 09 Carl Cox - The Nite Life (Filterheadz Remix) 35:16 10 Rafa Barrios Rob Hes - Samsa (Original Mix) 39:21 11 Filterheadz - Flow (Original Mix) 45:15 12 Reinier Zonneveld - Trackstomp (Original Mix) 47:48 13 Secret Cinema, Enrico Sangiuliano - Alone With The Bitch (Original Mix) 51:54 14 Victor Calderone - Mole (Original Mix) 56:00
Aerodynamix 034 @ Frisky Radio October 2015 mixed by JuanPdata/51-va-aerodynamix_034_mixed_by_juan_prada_friskyradio-oct2015-500px.pngdata/51-va-aerodynamix_034_mixed_by_juan_prada_friskyradio-oct2015.mp3data/51-va-aerodynamix_034_mixed_by_juan_prada_friskyradio-oct2015.ogg
{"Cuesheet":{"performer":"VA [Mixed by JuanP]","title":"Aerodynamix 034 (October 2015) Frisky Radio","file":"51-va-aerodynamix_034_mixed_by_juan_prada_friskyradio-oct2015.mp3"},"Track":[{"performer":"Julian Jeweil","title":"Meteorite (Original Mix)","index":{"time":"00:00:00","frames":0,"seconds":0,"lenseconds":249,"lentime":"04:09"}},{"performer":"Alan Fitzpatrick","title":"Love Siren (Original Mix)","index":{"time":"04:09:00","frames":18675,"seconds":249,"lenseconds":246,"lentime":"04:06"}},{"performer":"Jel Ford","title":"Overcast (Original Mix)","index":{"time":"08:15:00","frames":37125,"seconds":495,"lenseconds":292,"lentime":"04:52"}},{"performer":"Hidro","title":"Roam (Dj Drako Remix)","index":{"time":"13:07:00","frames":59025,"seconds":787,"lenseconds":223,"lentime":"03:43"}},{"performer":"Danny Tenaglia, Joseph Capriati","title":"Dibiza Joseph (Capriati Remix)","index":{"time":"16:50:00","frames":75750,"seconds":1010,"lenseconds":276,"lentime":"04:36"}},{"performer":"Julian Jeweil","title":"And We (Original Mix)","index":{"time":"21:26:00","frames":96450,"seconds":1286,"lenseconds":277,"lentime":"04:37"}},{"performer":"Alan Fitzpatrick","title":"U said U (Original Mix)","index":{"time":"26:03:00","frames":117225,"seconds":1563,"lenseconds":215,"lentime":"03:35"}},{"performer":"Mattew Jay","title":"Aries (Original Mix)","index":{"time":"29:38:00","frames":133350,"seconds":1778,"lenseconds":338,"lentime":"05:38"}},{"performer":"Carl Cox","title":"The Nite Life (Filterheadz Remix)","index":{"time":"35:16:00","frames":158700,"seconds":2116,"lenseconds":245,"lentime":"04:05"}},{"performer":"Rafa Barrios Rob Hes","title":"Samsa (Original Mix)","index":{"time":"39:21:00","frames":177075,"seconds":2361,"lenseconds":354,"lentime":"05:54"}},{"performer":"Filterheadz","title":"Flow (Original Mix)","index":{"time":"45:15:00","frames":203625,"seconds":2715,"lenseconds":153,"lentime":"02:33"}},{"performer":"Reinier Zonneveld","title":"Trackstomp (Original Mix)","index":{"time":"47:48:00","frames":215100,"seconds":2868,"lenseconds":246,"lentime":"04:06"}},{"performer":"Secret Cinema, Enrico Sangiuliano","title":"Alone With The Bitch (Original Mix)","index":{"time":"51:54:00","frames":233550,"seconds":3114,"lenseconds":246,"lentime":"04:06"}},{"performer":"Victor Calderone","title":"Mole (Original Mix)","index":{"time":"56:00:00","frames":252000,"seconds":3360,"lenseconds":240,"lentime":"04:00"}}]}