Carefully constructed music sets for your aural pleasure
Aerodynamix 033 @ Frisky Radio September 2015 mixed by JuanP
Progressive Trance / Trance
1:00:00
progressive trance, trance
SHOW TRACKLIST
SHOW CUESHEET
SHOW TXT PL

LOAD IN AUDIO PLAYER

1
Loud
Triceratops (Original Mix)
07:49
2
Motorcycle
As the Rush Comes (Metronome & Morten Granau Bootleg Remix)
04:55
3
Arty feat. Tania Zygar
The Wall (Original Extended Mix)
06:39
4
Solarstone
Solarcoaster (Protoculture Remix)
05:39
5
Bart Claessen & Raz Nitzan Pres. Who.Is
Only Totally (Original Mix)
04:56
6
Lange
Wired To Be Inspired
05:02
7
Arisen Flame
War Of Angels (Original Mix)
05:05
8
7 Skies
Caffeine (Original Mix)
07:17
9
Antony Waldhorn
Sashimi (Mark Sixma & Klauss Goulart Remix)
05:49
10
Ferry Corsten pres. Gouryella
Anahera (Extended Mix)
06:49
PERFORMER "VA [Mixed by JuanP]" TITLE "Aerodynamix 033 (September 2015) Frisky Radio" FILE "50-va-aerodynamix_033_mixed_by_juan_prada_friskyradio-sep2015.mp3" WAVE TRACK 01 AUDIO PERFORMER "Loud" TITLE "Triceratops (Original Mix)" INDEX 01 00:00:00 TRACK 02 AUDIO PERFORMER "Motorcycle" TITLE "As the Rush Comes (Metronome & Morten Granau Bootleg Remix)" INDEX 01 07:49:00 TRACK 03 AUDIO PERFORMER "Arty feat. Tania Zygar" TITLE "The Wall (Original Extended Mix)" INDEX 01 12:44:00 TRACK 04 AUDIO PERFORMER "Solarstone" TITLE "Solarcoaster (Protoculture Remix)" INDEX 01 19:23:00 TRACK 05 AUDIO PERFORMER "Bart Claessen & Raz Nitzan Pres. Who.Is" TITLE "Only Totally (Original Mix)" INDEX 01 25:02:00 TRACK 06 AUDIO PERFORMER "Lange" TITLE "Wired To Be Inspired" INDEX 01 29:58:00 TRACK 07 AUDIO PERFORMER "Arisen Flame" TITLE "War Of Angels (Original Mix)" INDEX 01 35:00:00 TRACK 08 AUDIO PERFORMER "7 Skies" TITLE "Caffeine (Original Mix)" INDEX 01 40:05:00 TRACK 09 AUDIO PERFORMER "Antony Waldhorn" TITLE "Sashimi (Mark Sixma & Klauss Goulart Remix)" INDEX 01 47:22:00 TRACK 10 AUDIO PERFORMER "Ferry Corsten pres. Gouryella" TITLE "Anahera (Extended Mix)" INDEX 01 53:11:00
01 Loud - Triceratops (Original Mix) 00:00 02 Motorcycle - As the Rush Comes (Metronome & Morten Granau Bootleg Remix) 07:49 03 Arty feat. Tania Zygar - The Wall (Original Extended Mix) 12:44 04 Solarstone - Solarcoaster (Protoculture Remix) 19:23 05 Bart Claessen & Raz Nitzan Pres. Who.Is - Only Totally (Original Mix) 25:02 06 Lange - Wired To Be Inspired 29:58 07 Arisen Flame - War Of Angels (Original Mix) 35:00 08 7 Skies - Caffeine (Original Mix) 40:05 09 Antony Waldhorn - Sashimi (Mark Sixma & Klauss Goulart Remix) 47:22 10 Ferry Corsten pres. Gouryella - Anahera (Extended Mix) 53:11
Aerodynamix 033 @ Frisky Radio September 2015 mixed by JuanPdata/50-va-aerodynamix_033_mixed_by_juan_prada_friskyradio-sep2015-500px.pngdata/50-va-aerodynamix_033_mixed_by_juan_prada_friskyradio-sep2015.mp3data/50-va-aerodynamix_033_mixed_by_juan_prada_friskyradio-sep2015.ogg
{"Cuesheet":{"performer":"VA [Mixed by JuanP]","title":"Aerodynamix 033 (September 2015) Frisky Radio","file":"50-va-aerodynamix_033_mixed_by_juan_prada_friskyradio-sep2015.mp3"},"Track":[{"performer":"Loud","title":"Triceratops (Original Mix)","index":{"time":"00:00:00","frames":0,"seconds":0,"lenseconds":469,"lentime":"07:49"}},{"performer":"Motorcycle","title":"As the Rush Comes (Metronome & Morten Granau Bootleg Remix)","index":{"time":"07:49:00","frames":35175,"seconds":469,"lenseconds":295,"lentime":"04:55"}},{"performer":"Arty feat. Tania Zygar","title":"The Wall (Original Extended Mix)","index":{"time":"12:44:00","frames":57300,"seconds":764,"lenseconds":399,"lentime":"06:39"}},{"performer":"Solarstone","title":"Solarcoaster (Protoculture Remix)","index":{"time":"19:23:00","frames":87225,"seconds":1163,"lenseconds":339,"lentime":"05:39"}},{"performer":"Bart Claessen & Raz Nitzan Pres. Who.Is","title":"Only Totally (Original Mix)","index":{"time":"25:02:00","frames":112650,"seconds":1502,"lenseconds":296,"lentime":"04:56"}},{"performer":"Lange","title":"Wired To Be Inspired","index":{"time":"29:58:00","frames":134850,"seconds":1798,"lenseconds":302,"lentime":"05:02"}},{"performer":"Arisen Flame","title":"War Of Angels (Original Mix)","index":{"time":"35:00:00","frames":157500,"seconds":2100,"lenseconds":305,"lentime":"05:05"}},{"performer":"7 Skies","title":"Caffeine (Original Mix)","index":{"time":"40:05:00","frames":180375,"seconds":2405,"lenseconds":437,"lentime":"07:17"}},{"performer":"Antony Waldhorn","title":"Sashimi (Mark Sixma & Klauss Goulart Remix)","index":{"time":"47:22:00","frames":213150,"seconds":2842,"lenseconds":349,"lentime":"05:49"}},{"performer":"Ferry Corsten pres. Gouryella","title":"Anahera (Extended Mix)","index":{"time":"53:11:00","frames":239325,"seconds":3191,"lenseconds":409,"lentime":"06:49"}}]}