Carefully constructed music sets for your aural pleasure
Aerodynamix 032 @ Frisky Radio August 2015 mixed by JuanP
Progressive House / Progressive Trance
1:00:00
progressive house, progressive trance
SHOW TRACKLIST
SHOW CUESHEET
SHOW TXT PL

LOAD IN AUDIO PLAYER

1
Matt Fax
Moonlight (Original Mix)
06:23
2
Above & Beyond feat. Gemma Hayes
Counting Down The Days (Yotto Remix)
05:56
3
Stoneface & Terminal
Another Day (Gundamea Remix)
06:07
4
Eric Prydz
Generate (Kölsch Remix)
06:06
5
ATTLAS
Lighthouse (Original Mix)
04:34
6
Talamanca
A Day At The Beach
07:38
7
Fehrplay
Pyara (Original Mix)
04:43
8
Thomas Hayes
Lost
05:00
9
Orkidea
Unity (Allende Remix)
07:00
10
Greenhaven DJs
Portal (Original Mix)
06:33
PERFORMER "VA [Mixed by JuanP]" TITLE "Aerodynamix 032 (August 2015) Frisky Radio" FILE "49-va-aerodynamix_032_mixed_by_juan_prada_friskyradio-aug2015.mp3" WAVE TRACK 01 AUDIO PERFORMER "Matt Fax" TITLE "Moonlight (Original Mix)" INDEX 01 00:00:00 TRACK 02 AUDIO PERFORMER "Above & Beyond feat. Gemma Hayes" TITLE "Counting Down The Days (Yotto Remix)" INDEX 01 06:23:00 TRACK 03 AUDIO PERFORMER "Stoneface & Terminal" TITLE "Another Day (Gundamea Remix)" INDEX 01 12:19:00 TRACK 04 AUDIO PERFORMER "Eric Prydz" TITLE "Generate (Kölsch Remix)" INDEX 01 18:26:00 TRACK 05 AUDIO PERFORMER "ATTLAS" TITLE "Lighthouse (Original Mix)" INDEX 01 24:32:00 TRACK 06 AUDIO PERFORMER "Talamanca" TITLE "A Day At The Beach" INDEX 01 29:06:00 TRACK 07 AUDIO PERFORMER "Fehrplay" TITLE "Pyara (Original Mix)" INDEX 01 36:44:00 TRACK 08 AUDIO PERFORMER "Thomas Hayes" TITLE "Lost" INDEX 01 41:27:00 TRACK 09 AUDIO PERFORMER "Orkidea" TITLE "Unity (Allende Remix)" INDEX 01 46:27:00 TRACK 10 AUDIO PERFORMER "Greenhaven DJs" TITLE "Portal (Original Mix)" INDEX 01 53:27:00
01 Matt Fax - Moonlight (Original Mix) 00:00 02 Above & Beyond feat. Gemma Hayes - Counting Down The Days (Yotto Remix) 06:23 03 Stoneface & Terminal - Another Day (Gundamea Remix) 12:19 04 Eric Prydz - Generate (Kölsch Remix) 18:26 05 ATTLAS - Lighthouse (Original Mix) 24:32 06 Talamanca - A Day At The Beach 29:06 07 Fehrplay - Pyara (Original Mix) 36:44 08 Thomas Hayes - Lost 41:27 09 Orkidea - Unity (Allende Remix) 46:27 10 Greenhaven DJs - Portal (Original Mix) 53:27
Aerodynamix 032 @ Frisky Radio August 2015 mixed by JuanPdata/49-va-aerodynamix_032_mixed_by_juan_prada_friskyradio-aug2015-500px.pngdata/49-va-aerodynamix_032_mixed_by_juan_prada_friskyradio-aug2015.mp3data/49-va-aerodynamix_032_mixed_by_juan_prada_friskyradio-aug2015.ogg
{"Cuesheet":{"performer":"VA [Mixed by JuanP]","title":"Aerodynamix 032 (August 2015) Frisky Radio","file":"49-va-aerodynamix_032_mixed_by_juan_prada_friskyradio-aug2015.mp3"},"Track":[{"performer":"Matt Fax","title":"Moonlight (Original Mix)","index":{"time":"00:00:00","frames":0,"seconds":0,"lenseconds":383,"lentime":"06:23"}},{"performer":"Above & Beyond feat. Gemma Hayes","title":"Counting Down The Days (Yotto Remix)","index":{"time":"06:23:00","frames":28725,"seconds":383,"lenseconds":356,"lentime":"05:56"}},{"performer":"Stoneface & Terminal","title":"Another Day (Gundamea Remix)","index":{"time":"12:19:00","frames":55425,"seconds":739,"lenseconds":367,"lentime":"06:07"}},{"performer":"Eric Prydz","title":"Generate (K\u00f6lsch Remix)","index":{"time":"18:26:00","frames":82950,"seconds":1106,"lenseconds":366,"lentime":"06:06"}},{"performer":"ATTLAS","title":"Lighthouse (Original Mix)","index":{"time":"24:32:00","frames":110400,"seconds":1472,"lenseconds":274,"lentime":"04:34"}},{"performer":"Talamanca","title":"A Day At The Beach","index":{"time":"29:06:00","frames":130950,"seconds":1746,"lenseconds":458,"lentime":"07:38"}},{"performer":"Fehrplay","title":"Pyara (Original Mix)","index":{"time":"36:44:00","frames":165300,"seconds":2204,"lenseconds":283,"lentime":"04:43"}},{"performer":"Thomas Hayes","title":"Lost","index":{"time":"41:27:00","frames":186525,"seconds":2487,"lenseconds":300,"lentime":"05:00"}},{"performer":"Orkidea","title":"Unity (Allende Remix)","index":{"time":"46:27:00","frames":209025,"seconds":2787,"lenseconds":420,"lentime":"07:00"}},{"performer":"Greenhaven DJs","title":"Portal (Original Mix)","index":{"time":"53:27:00","frames":240525,"seconds":3207,"lenseconds":393,"lentime":"06:33"}}]}