Carefully constructed music sets for your aural pleasure
Aerodynamix 031 @ Frisky Radio July 2015 mixed by JuanP
Progressive Vocal Trance
1:00:00
progressive vocal trance, trance
SHOW TRACKLIST
SHOW CUESHEET
SHOW TXT PL

LOAD IN AUDIO PLAYER

1
Orkidea
My Sunset
05:13
2
Moonbeam With Indifferent Guy Ft. Eva Pavlova
Follow Me
04:54
3
Mark White
Moorea (Orbion Remix)
04:03
4
Grum
Lightspeed (Original Mix)
05:05
5
Markus Hakala
Forgotten (Original Mix)
05:32
6
Above & Beyond
Hello (Jerome Isma-Ae Remix)
04:22
7
Aurosonic, Ana Criado
The Force Of The Blow (Original Mix)
07:00
8
Salt Tank
Phoenix (Allende Remix EA3 Reconstruction)
07:38
9
Jerome Isma-Ae
Hold That Sucker Down (Jerome Isma-Ae's 10 Year Anniversary Mix)
05:40
10
Orkidea
p-Machinery
05:10
11
Jean-Michel Jarre & Tangerine Dream
Zero Gravity (Above & Beyond Remix)
05:23
PERFORMER "VA [Mixed by JuanP]" TITLE "Aerodynamix 031 (July 2015) Frisky Radio" FILE "48-va-aerodynamix_031_mixed_by_juan_prada_friskyradio-jul2015.mp3" WAVE TRACK 01 AUDIO PERFORMER "Orkidea" TITLE "My Sunset" INDEX 01 00:00:00 TRACK 02 AUDIO PERFORMER "Moonbeam With Indifferent Guy Ft. Eva Pavlova" TITLE "Follow Me" INDEX 01 05:13:00 TRACK 03 AUDIO PERFORMER "Mark White" TITLE "Moorea (Orbion Remix)" INDEX 01 10:07:00 TRACK 04 AUDIO PERFORMER "Grum" TITLE "Lightspeed (Original Mix)" INDEX 01 14:10:00 TRACK 05 AUDIO PERFORMER "Markus Hakala" TITLE "Forgotten (Original Mix)" INDEX 01 19:15:00 TRACK 06 AUDIO PERFORMER "Above & Beyond" TITLE "Hello (Jerome Isma-Ae Remix)" INDEX 01 24:47:00 TRACK 07 AUDIO PERFORMER "Aurosonic, Ana Criado" TITLE "The Force Of The Blow (Original Mix)" INDEX 01 29:09:00 TRACK 08 AUDIO PERFORMER "Salt Tank" TITLE "Phoenix (Allende Remix EA3 Reconstruction)" INDEX 01 36:09:00 TRACK 09 AUDIO PERFORMER "Jerome Isma-Ae" TITLE "Hold That Sucker Down (Jerome Isma-Ae's 10 Year Anniversary Mix)" INDEX 01 43:47:00 TRACK 10 AUDIO PERFORMER "Orkidea" TITLE "p-Machinery" INDEX 01 49:27:00 TRACK 11 AUDIO PERFORMER "Jean-Michel Jarre & Tangerine Dream" TITLE "Zero Gravity (Above & Beyond Remix)" INDEX 01 54:37:00
01 Orkidea - My Sunset 00:00 02 Moonbeam With Indifferent Guy Ft. Eva Pavlova - Follow Me 05:13 03 Mark White - Moorea (Orbion Remix) 10:07 04 Grum - Lightspeed (Original Mix) 14:10 05 Markus Hakala - Forgotten (Original Mix) 19:15 06 Above & Beyond - Hello (Jerome Isma-Ae Remix) 24:47 07 Aurosonic, Ana Criado - The Force Of The Blow (Original Mix) 29:09 08 Salt Tank - Phoenix (Allende Remix EA3 Reconstruction) 36:09 09 Jerome Isma-Ae - Hold That Sucker Down (Jerome Isma-Ae's 10 Year Anniversary Mix) 43:47 10 Orkidea - p-Machinery 49:27 11 Jean-Michel Jarre & Tangerine Dream - Zero Gravity (Above & Beyond Remix) 54:37
Aerodynamix 031 @ Frisky Radio July 2015 mixed by JuanPdata/48-va-aerodynamix_031_mixed_by_juan_prada_friskyradio-jul2015-500px.pngdata/48-va-aerodynamix_031_mixed_by_juan_prada_friskyradio-jul2015.mp3data/48-va-aerodynamix_031_mixed_by_juan_prada_friskyradio-jul2015.ogg
{"Cuesheet":{"performer":"VA [Mixed by JuanP]","title":"Aerodynamix 031 (July 2015) Frisky Radio","file":"48-va-aerodynamix_031_mixed_by_juan_prada_friskyradio-jul2015.mp3"},"Track":[{"performer":"Orkidea","title":"My Sunset","index":{"time":"00:00:00","frames":0,"seconds":0,"lenseconds":313,"lentime":"05:13"}},{"performer":"Moonbeam With Indifferent Guy Ft. Eva Pavlova","title":"Follow Me","index":{"time":"05:13:00","frames":23475,"seconds":313,"lenseconds":294,"lentime":"04:54"}},{"performer":"Mark White","title":"Moorea (Orbion Remix)","index":{"time":"10:07:00","frames":45525,"seconds":607,"lenseconds":243,"lentime":"04:03"}},{"performer":"Grum","title":"Lightspeed (Original Mix)","index":{"time":"14:10:00","frames":63750,"seconds":850,"lenseconds":305,"lentime":"05:05"}},{"performer":"Markus Hakala","title":"Forgotten (Original Mix)","index":{"time":"19:15:00","frames":86625,"seconds":1155,"lenseconds":332,"lentime":"05:32"}},{"performer":"Above & Beyond","title":"Hello (Jerome Isma-Ae Remix)","index":{"time":"24:47:00","frames":111525,"seconds":1487,"lenseconds":262,"lentime":"04:22"}},{"performer":"Aurosonic, Ana Criado","title":"The Force Of The Blow (Original Mix)","index":{"time":"29:09:00","frames":131175,"seconds":1749,"lenseconds":420,"lentime":"07:00"}},{"performer":"Salt Tank","title":"Phoenix (Allende Remix EA3 Reconstruction)","index":{"time":"36:09:00","frames":162675,"seconds":2169,"lenseconds":458,"lentime":"07:38"}},{"performer":"Jerome Isma-Ae","title":"Hold That Sucker Down (Jerome Isma-Ae's 10 Year Anniversary Mix)","index":{"time":"43:47:00","frames":197025,"seconds":2627,"lenseconds":340,"lentime":"05:40"}},{"performer":"Orkidea","title":"p-Machinery","index":{"time":"49:27:00","frames":222525,"seconds":2967,"lenseconds":310,"lentime":"05:10"}},{"performer":"Jean-Michel Jarre & Tangerine Dream","title":"Zero Gravity (Above & Beyond Remix)","index":{"time":"54:37:00","frames":245775,"seconds":3277,"lenseconds":323,"lentime":"05:23"}}]}