Carefully constructed music sets for your aural pleasure
Aerodynamix 030 @ Frisky Radio June 2015 mixed by JuanP
Tech House / Techno
1:00:00
techno, tech house
SHOW TRACKLIST
SHOW CUESHEET
SHOW TXT PL

LOAD IN AUDIO PLAYER

1
Claude VonStroke
Eye I Eye (Original Mix)
05:25
2
JMC
Late Hours (Original Mix)
06:11
3
Siwell
Sinnerman (Prelude Mix)
02:49
4
Dosem
City Pulse
05:08
5
Pig&Dan
Empty
05:53
6
Christian Smith & Wehbba
Someone Else (Original Mix)
05:38
7
Eros Molina
Ezequiel (Original Mix)
04:06
8
Jose De Los Santos
Sonora (Alex Nava Remix)
05:07
9
Wally Lopez & Ismael Rivas
Save Love (Original Mix)
06:08
10
Zmey
Liqueur (Original Mix)
04:10
11
Jose V
Double Check (Original Mix)
04:04
12
The Confusion & Sweet Cheeks
Open The Gate (Original Mix)
05:21
PERFORMER "VA [Mixed by JuanP]" TITLE "Aerodynamix 030 (June 2015) Frisky Radio" FILE "47-va-aerodynamix_030_mixed_by_juan_prada_friskyradio-jun2015.mp3" WAVE TRACK 01 AUDIO PERFORMER "Claude VonStroke" TITLE "Eye I Eye (Original Mix)" INDEX 01 00:00:00 TRACK 02 AUDIO PERFORMER "JMC" TITLE "Late Hours (Original Mix)" INDEX 01 05:25:00 TRACK 03 AUDIO PERFORMER "Siwell" TITLE "Sinnerman (Prelude Mix)" INDEX 01 11:36:00 TRACK 04 AUDIO PERFORMER "Dosem" TITLE "City Pulse" INDEX 01 14:25:00 TRACK 05 AUDIO PERFORMER "Pig&Dan" TITLE "Empty" INDEX 01 19:33:00 TRACK 06 AUDIO PERFORMER "Christian Smith & Wehbba" TITLE "Someone Else (Original Mix)" INDEX 01 25:26:00 TRACK 07 AUDIO PERFORMER "Eros Molina" TITLE "Ezequiel (Original Mix)" INDEX 01 31:04:00 TRACK 08 AUDIO PERFORMER "Jose De Los Santos" TITLE "Sonora (Alex Nava Remix)" INDEX 01 35:10:00 TRACK 09 AUDIO PERFORMER "Wally Lopez & Ismael Rivas" TITLE "Save Love (Original Mix)" INDEX 01 40:17:00 TRACK 10 AUDIO PERFORMER "Zmey" TITLE "Liqueur (Original Mix)" INDEX 01 46:25:00 TRACK 11 AUDIO PERFORMER "Jose V" TITLE "Double Check (Original Mix)" INDEX 01 50:35:00 TRACK 12 AUDIO PERFORMER "The Confusion & Sweet Cheeks" TITLE "Open The Gate (Original Mix)" INDEX 01 54:39:00
01 Claude VonStroke - Eye I Eye (Original Mix) 00:00 02 JMC - Late Hours (Original Mix) 05:25 03 Siwell - Sinnerman (Prelude Mix) 11:36 04 Dosem - City Pulse 14:25 05 Pig&Dan - Empty 19:33 06 Christian Smith & Wehbba - Someone Else (Original Mix) 25:26 07 Eros Molina - Ezequiel (Original Mix) 31:04 08 Jose De Los Santos - Sonora (Alex Nava Remix) 35:10 09 Wally Lopez & Ismael Rivas - Save Love (Original Mix) 40:17 10 Zmey - Liqueur (Original Mix) 46:25 11 Jose V - Double Check (Original Mix) 50:35 12 The Confusion & Sweet Cheeks - Open The Gate (Original Mix) 54:39
Aerodynamix 030 @ Frisky Radio June 2015 mixed by JuanPdata/47-va-aerodynamix_030_mixed_by_juan_prada_friskyradio-jun2015-500px.pngdata/47-va-aerodynamix_030_mixed_by_juan_prada_friskyradio-jun2015.mp3data/47-va-aerodynamix_030_mixed_by_juan_prada_friskyradio-jun2015.ogg
{"Cuesheet":{"performer":"VA [Mixed by JuanP]","title":"Aerodynamix 030 (June 2015) Frisky Radio","file":"47-va-aerodynamix_030_mixed_by_juan_prada_friskyradio-jun2015.mp3"},"Track":[{"performer":"Claude VonStroke","title":"Eye I Eye (Original Mix)","index":{"time":"00:00:00","frames":0,"seconds":0,"lenseconds":325,"lentime":"05:25"}},{"performer":"JMC","title":"Late Hours (Original Mix)","index":{"time":"05:25:00","frames":24375,"seconds":325,"lenseconds":371,"lentime":"06:11"}},{"performer":"Siwell","title":"Sinnerman (Prelude Mix)","index":{"time":"11:36:00","frames":52200,"seconds":696,"lenseconds":169,"lentime":"02:49"}},{"performer":"Dosem","title":"City Pulse","index":{"time":"14:25:00","frames":64875,"seconds":865,"lenseconds":308,"lentime":"05:08"}},{"performer":"Pig&Dan","title":"Empty","index":{"time":"19:33:00","frames":87975,"seconds":1173,"lenseconds":353,"lentime":"05:53"}},{"performer":"Christian Smith & Wehbba","title":"Someone Else (Original Mix)","index":{"time":"25:26:00","frames":114450,"seconds":1526,"lenseconds":338,"lentime":"05:38"}},{"performer":"Eros Molina","title":"Ezequiel (Original Mix)","index":{"time":"31:04:00","frames":139800,"seconds":1864,"lenseconds":246,"lentime":"04:06"}},{"performer":"Jose De Los Santos","title":"Sonora (Alex Nava Remix)","index":{"time":"35:10:00","frames":158250,"seconds":2110,"lenseconds":307,"lentime":"05:07"}},{"performer":"Wally Lopez & Ismael Rivas","title":"Save Love (Original Mix)","index":{"time":"40:17:00","frames":181275,"seconds":2417,"lenseconds":368,"lentime":"06:08"}},{"performer":"Zmey","title":"Liqueur (Original Mix)","index":{"time":"46:25:00","frames":208875,"seconds":2785,"lenseconds":250,"lentime":"04:10"}},{"performer":"Jose V","title":"Double Check (Original Mix)","index":{"time":"50:35:00","frames":227625,"seconds":3035,"lenseconds":244,"lentime":"04:04"}},{"performer":"The Confusion & Sweet Cheeks","title":"Open The Gate (Original Mix)","index":{"time":"54:39:00","frames":245925,"seconds":3279,"lenseconds":321,"lentime":"05:21"}}]}