Carefully constructed music sets for your aural pleasure
Aerodynamix 029 @ Frisky Radio May 2015 mixed by JuanP
Progressive Vocal Trance
1:00:09
progressive vocal trance, trance
SHOW TRACKLIST
SHOW CUESHEET
SHOW TXT PL

LOAD IN AUDIO PLAYER

1
Signalrunners feat. Julie Thompson
These Shoulders (Club Mix)
06:30
2
Shaun Warner feat. Lil
When I See You (Gianfranco Remix)
05:15
3
Ruben De Ronde feat. Victoria Ray
Dreams Come True (DRYM Remix)
04:48
4
Ed Sheeran & Rudimental
Bloodstream (Arty Remix)
05:45
5
Gareth Emery & Cosmic Gate
Long Way Home (KomboRavers Edit)
03:30
6
DRYM
Calipso (Original Mix)
04:04
7
Arty
Twilight Tonight (Arty Remode)
07:53
8
Alexander Popov
Born To Love (Original Mix)
04:51
9
LTN
Forbidden Zone (Alexander Popov Remix)
06:32
10
Mike Shiver & Aruna
Everywhere You Are (Duderstadt Dub Mix)
06:40
11
Bent
As You Fall (Kyau And Albert Remix)
04:21
PERFORMER "VA [Mixed by JuanP]" TITLE "Aerodynamix 029 (May 2015) Frisky Radio" FILE "46-va-aerodynamix_029_mixed_by_juan_prada_friskyradio-may2015.mp3" WAVE TRACK 01 AUDIO PERFORMER "Signalrunners feat. Julie Thompson" TITLE "These Shoulders (Club Mix)" INDEX 01 00:00:00 TRACK 02 AUDIO PERFORMER "Shaun Warner feat. Lil" TITLE "When I See You (Gianfranco Remix)" INDEX 01 06:30:00 TRACK 03 AUDIO PERFORMER "Ruben De Ronde feat. Victoria Ray" TITLE "Dreams Come True (DRYM Remix)" INDEX 01 11:45:00 TRACK 04 AUDIO PERFORMER "Ed Sheeran & Rudimental" TITLE "Bloodstream (Arty Remix)" INDEX 01 16:33:00 TRACK 05 AUDIO PERFORMER "Gareth Emery & Cosmic Gate" TITLE "Long Way Home (KomboRavers Edit)" INDEX 01 22:18:30 TRACK 06 AUDIO PERFORMER "DRYM" TITLE "Calipso (Original Mix)" INDEX 01 25:48:30 TRACK 07 AUDIO PERFORMER "Arty" TITLE "Twilight Tonight (Arty Remode)" INDEX 01 29:52:30 TRACK 08 AUDIO PERFORMER "Alexander Popov" TITLE "Born To Love (Original Mix)" INDEX 01 37:45:00 TRACK 09 AUDIO PERFORMER "LTN" TITLE "Forbidden Zone (Alexander Popov Remix)" INDEX 01 42:36:00 TRACK 10 AUDIO PERFORMER "Mike Shiver & Aruna" TITLE "Everywhere You Are (Duderstadt Dub Mix)" INDEX 01 49:08:30 TRACK 11 AUDIO PERFORMER "Bent" TITLE "As You Fall (Kyau And Albert Remix)" INDEX 01 55:48:30
01 Signalrunners feat. Julie Thompson - These Shoulders (Club Mix) 00:00 02 Shaun Warner feat. Lil - When I See You (Gianfranco Remix) 06:30 03 Ruben De Ronde feat. Victoria Ray - Dreams Come True (DRYM Remix) 11:45 04 Ed Sheeran & Rudimental - Bloodstream (Arty Remix) 16:33 05 Gareth Emery & Cosmic Gate - Long Way Home (KomboRavers Edit) 22:18 06 DRYM - Calipso (Original Mix) 25:48 07 Arty - Twilight Tonight (Arty Remode) 29:52 08 Alexander Popov - Born To Love (Original Mix) 37:45 09 LTN - Forbidden Zone (Alexander Popov Remix) 42:36 10 Mike Shiver & Aruna - Everywhere You Are (Duderstadt Dub Mix) 49:08 11 Bent - As You Fall (Kyau And Albert Remix) 55:48
Aerodynamix 029 @ Frisky Radio May 2015 mixed by JuanPdata/46-va-aerodynamix_029_mixed_by_juan_prada_friskyradio-may2015-500px.pngdata/46-va-aerodynamix_029_mixed_by_juan_prada_friskyradio-may2015.mp3data/46-va-aerodynamix_029_mixed_by_juan_prada_friskyradio-may2015.ogg
{"Cuesheet":{"performer":"VA [Mixed by JuanP]","title":"Aerodynamix 029 (May 2015) Frisky Radio","file":"46-va-aerodynamix_029_mixed_by_juan_prada_friskyradio-may2015.mp3"},"Track":[{"performer":"Signalrunners feat. Julie Thompson","title":"These Shoulders (Club Mix)","index":{"time":"00:00:00","frames":0,"seconds":0,"lenseconds":390,"lentime":"06:30"}},{"performer":"Shaun Warner feat. Lil","title":"When I See You (Gianfranco Remix)","index":{"time":"06:30:00","frames":29250,"seconds":390,"lenseconds":315,"lentime":"05:15"}},{"performer":"Ruben De Ronde feat. Victoria Ray","title":"Dreams Come True (DRYM Remix)","index":{"time":"11:45:00","frames":52875,"seconds":705,"lenseconds":288,"lentime":"04:48"}},{"performer":"Ed Sheeran & Rudimental","title":"Bloodstream (Arty Remix)","index":{"time":"16:33:00","frames":74475,"seconds":993,"lenseconds":345,"lentime":"05:45"}},{"performer":"Gareth Emery & Cosmic Gate","title":"Long Way Home (KomboRavers Edit)","index":{"time":"22:18:30","frames":100380,"seconds":1338,"lenseconds":210,"lentime":"03:30"}},{"performer":"DRYM","title":"Calipso (Original Mix)","index":{"time":"25:48:30","frames":116130,"seconds":1548,"lenseconds":244,"lentime":"04:04"}},{"performer":"Arty","title":"Twilight Tonight (Arty Remode)","index":{"time":"29:52:30","frames":134430,"seconds":1792,"lenseconds":473,"lentime":"07:53"}},{"performer":"Alexander Popov","title":"Born To Love (Original Mix)","index":{"time":"37:45:00","frames":169875,"seconds":2265,"lenseconds":291,"lentime":"04:51"}},{"performer":"LTN","title":"Forbidden Zone (Alexander Popov Remix)","index":{"time":"42:36:00","frames":191700,"seconds":2556,"lenseconds":392,"lentime":"06:32"}},{"performer":"Mike Shiver & Aruna","title":"Everywhere You Are (Duderstadt Dub Mix)","index":{"time":"49:08:30","frames":221130,"seconds":2948,"lenseconds":400,"lentime":"06:40"}},{"performer":"Bent","title":"As You Fall (Kyau And Albert Remix)","index":{"time":"55:48:30","frames":251130,"seconds":3348,"lenseconds":261,"lentime":"04:21"}}]}