Carefully constructed music sets for your aural pleasure
Feb 2011: Prog/House Mint Selection by JuanP
Progressive house quality tracks set. Download cuesheet here: http://goo.gl/PImKP
1:10:53
progressive house, trance, house, electronic, session, set
SHOW TRACKLIST
SHOW CUESHEET
SHOW TXT PL

LOAD IN AUDIO PLAYER

1
Three'N'One Pres. Johnny Shaker
Reflect (Niels Van Gogh vs Sunloverz Remix)
05:46
2
Lostep
Burma (Sasha Mix)
05:30
3
Guy J
Lamur (Henry Saiz Remix)
06:15
4
KOS
Its Not The End (Sam Ball Mix)
04:01
5
Chaim
Popsky (Original Mix)
04:13
6
Guy Gerber
Timing (Original Mix)
06:59
7
Ossie
Farewell (Ossie Remix)
04:02
8
Agoria
Libellules
05:34
9
Aufgang
Sonar (Spitzer Remix)
04:25
10
Underworld
Play Pig (Pig And Dan Mix 2)
05:19
11
Sander Van Doorn
Daisy
05:27
12
LYS & Omar B
One Day (Original Mix)
05:24
13
Hybrid
Can You Hear Me (Eelke Kleijn Remix)
07:58
PERFORMER "VA [Mixed by Juan Prada]" TITLE "February 2011: Prog/House Mint Selection by JP" FILE "04-va-feb2011_proghouse_mint_selection_mixed_by_juan_prada.mp3" WAVE TRACK 01 AUDIO TITLE "Reflect (Niels Van Gogh vs Sunloverz Remix)" PERFORMER "Three'N'One Pres. Johnny Shaker" INDEX 01 00:00:00 TRACK 02 AUDIO TITLE "Burma (Sasha Mix)" PERFORMER "Lostep" INDEX 01 05:46:50 TRACK 03 AUDIO TITLE "Lamur (Henry Saiz Remix)" PERFORMER "Guy J" INDEX 01 11:16:00 TRACK 04 AUDIO TITLE "Its Not The End (Sam Ball Mix)" PERFORMER "KOS" INDEX 01 17:31:50 TRACK 05 AUDIO TITLE "Popsky (Original Mix)" PERFORMER "Chaim" INDEX 01 21:32:00 TRACK 06 AUDIO TITLE "Timing (Original Mix)" PERFORMER "Guy Gerber" INDEX 01 25:45:00 TRACK 07 AUDIO TITLE "Farewell (Ossie Remix)" PERFORMER "Ossie" INDEX 01 32:44:50 TRACK 08 AUDIO TITLE "Libellules" PERFORMER "Agoria" INDEX 01 36:46:00 TRACK 09 AUDIO TITLE "Sonar (Spitzer Remix)" PERFORMER "Aufgang" INDEX 01 42:20:00 TRACK 10 AUDIO TITLE "Play Pig (Pig And Dan Mix 2)" PERFORMER "Underworld" INDEX 01 46:45:00 TRACK 11 AUDIO TITLE "Daisy" PERFORMER "Sander Van Doorn" INDEX 01 52:04:00 TRACK 12 AUDIO TITLE "One Day (Original Mix)" PERFORMER "LYS & Omar B" INDEX 01 57:31:00 TRACK 13 AUDIO TITLE "Can You Hear Me (Eelke Kleijn Remix)" PERFORMER "Hybrid" INDEX 01 62:55:00
01 Three'N'One Pres. Johnny Shaker - Reflect (Niels Van Gogh vs Sunloverz Remix) 00:00 02 Lostep - Burma (Sasha Mix) 05:46 03 Guy J - Lamur (Henry Saiz Remix) 11:16 04 KOS - Its Not The End (Sam Ball Mix) 17:31 05 Chaim - Popsky (Original Mix) 21:32 06 Guy Gerber - Timing (Original Mix) 25:45 07 Ossie - Farewell (Ossie Remix) 32:44 08 Agoria - Libellules 36:46 09 Aufgang - Sonar (Spitzer Remix) 42:20 10 Underworld - Play Pig (Pig And Dan Mix 2) 46:45 11 Sander Van Doorn - Daisy 52:04 12 LYS & Omar B - One Day (Original Mix) 57:31 13 Hybrid - Can You Hear Me (Eelke Kleijn Remix) 62:55
Feb 2011: Prog/House Mint Selection by JuanPdata/04-va-feb2011_proghouse_mint_selection_mixed_by_juan_prada.jpgdata/04-va-feb2011_proghouse_mint_selection_mixed_by_juan_prada.mp3data/04-va-feb2011_proghouse_mint_selection_mixed_by_juan_prada.ogg
{"Cuesheet":{"performer":"VA [Mixed by Juan Prada]","title":"February 2011: Prog\/House Mint Selection by JP","file":"04-va-feb2011_proghouse_mint_selection_mixed_by_juan_prada.mp3"},"Track":[{"title":"Reflect (Niels Van Gogh vs Sunloverz Remix)","performer":"Three'N'One Pres. Johnny Shaker","index":{"time":"00:00:00","frames":0,"seconds":0,"lenseconds":346,"lentime":"05:46"}},{"title":"Burma (Sasha Mix)","performer":"Lostep","index":{"time":"05:46:50","frames":26000,"seconds":346,"lenseconds":330,"lentime":"05:30"}},{"title":"Lamur (Henry Saiz Remix)","performer":"Guy J","index":{"time":"11:16:00","frames":50700,"seconds":676,"lenseconds":375,"lentime":"06:15"}},{"title":"Its Not The End (Sam Ball Mix)","performer":"KOS","index":{"time":"17:31:50","frames":78875,"seconds":1051,"lenseconds":241,"lentime":"04:01"}},{"title":"Popsky (Original Mix)","performer":"Chaim","index":{"time":"21:32:00","frames":96900,"seconds":1292,"lenseconds":253,"lentime":"04:13"}},{"title":"Timing (Original Mix)","performer":"Guy Gerber","index":{"time":"25:45:00","frames":115875,"seconds":1545,"lenseconds":419,"lentime":"06:59"}},{"title":"Farewell (Ossie Remix)","performer":"Ossie","index":{"time":"32:44:50","frames":147350,"seconds":1964,"lenseconds":242,"lentime":"04:02"}},{"title":"Libellules","performer":"Agoria","index":{"time":"36:46:00","frames":165450,"seconds":2206,"lenseconds":334,"lentime":"05:34"}},{"title":"Sonar (Spitzer Remix)","performer":"Aufgang","index":{"time":"42:20:00","frames":190500,"seconds":2540,"lenseconds":265,"lentime":"04:25"}},{"title":"Play Pig (Pig And Dan Mix 2)","performer":"Underworld","index":{"time":"46:45:00","frames":210375,"seconds":2805,"lenseconds":319,"lentime":"05:19"}},{"title":"Daisy","performer":"Sander Van Doorn","index":{"time":"52:04:00","frames":234300,"seconds":3124,"lenseconds":327,"lentime":"05:27"}},{"title":"One Day (Original Mix)","performer":"LYS & Omar B","index":{"time":"57:31:00","frames":258825,"seconds":3451,"lenseconds":324,"lentime":"05:24"}},{"title":"Can You Hear Me (Eelke Kleijn Remix)","performer":"Hybrid","index":{"time":"62:55:00","frames":283125,"seconds":3775,"lenseconds":478,"lentime":"07:58"}}]}