Carefully constructed music sets for your aural pleasure
Aerodynamix 021 @ Frisky Radio September 2014 mixed by JuanP
Nu Disco, ProgHouse, House
1:00:00
nu disco, prog house, house
SHOW TRACKLIST
SHOW CUESHEET
SHOW TXT PL

LOAD IN AUDIO PLAYER

1
Coro Mixto Pe?a Santa With Ram?n A. Prada Vicente
Agora Non
01:41
2
Tom Middleton
Glass Raindrops (Feat. Sophie Barker)
04:01
3
16 Bit Lolitas
Deep In My Soul (Original Mix)
06:24
4
Ten Walls
Walking With Elephants (Original Mix)
04:48
5
Zmey
It`s A Fine Day With Opus III
05:04
6
Danny Darko
Butterfly (Original Mix)
05:14
7
16 Bit Lolitas
Premium Emo (Original Mix)
07:02
8
Lank
Passing Time (Original Mix)
06:12
9
Hot Chip
Flutes (Sasha Remix)
07:25
10
Nufects
Especimen 49 (Cut Knob Remix)
06:27
11
Eugene Loner
Dreamcatcher
05:42
PERFORMER "VA [Mixed by JuanP]" TITLE "Aerodynamix 021 (September 2014) Frisky Radio" FILE "36-va-aerodynamix_021_mixed_by_juan_prada_friskyradio-sep2014.mp3" WAVE TRACK 01 AUDIO PERFORMER "Coro Mixto Pe?a Santa With Ram?n A. Prada Vicente" TITLE "Agora Non" INDEX 01 00:00:00 TRACK 02 AUDIO PERFORMER "Tom Middleton" TITLE "Glass Raindrops (Feat. Sophie Barker)" INDEX 01 01:41:00 TRACK 03 AUDIO PERFORMER "16 Bit Lolitas" TITLE "Deep In My Soul (Original Mix)" INDEX 01 05:42:20 TRACK 04 AUDIO PERFORMER "Ten Walls" TITLE "Walking With Elephants (Original Mix)" INDEX 01 12:06:10 TRACK 05 AUDIO PERFORMER "Zmey" TITLE "It`s A Fine Day With Opus III" INDEX 01 16:54:10 TRACK 06 AUDIO PERFORMER "Danny Darko" TITLE "Butterfly (Original Mix)" INDEX 01 21:58:10 TRACK 07 AUDIO PERFORMER "16 Bit Lolitas" TITLE "Premium Emo (Original Mix)" INDEX 01 27:12:10 TRACK 08 AUDIO PERFORMER "Lank" TITLE "Passing Time (Original Mix)" INDEX 01 34:14:50 TRACK 09 AUDIO PERFORMER "Hot Chip" TITLE "Flutes (Sasha Remix)" INDEX 01 40:26:10 TRACK 10 AUDIO PERFORMER "Nufects" TITLE "Especimen 49 (Cut Knob Remix)" INDEX 01 47:51:20 TRACK 11 AUDIO PERFORMER "Eugene Loner" TITLE "Dreamcatcher" INDEX 01 54:18:50
01 Coro Mixto Pe?a Santa With Ram?n A. Prada Vicente - Agora Non 00:00 02 Tom Middleton - Glass Raindrops (Feat. Sophie Barker) 01:41 03 16 Bit Lolitas - Deep In My Soul (Original Mix) 05:42 04 Ten Walls - Walking With Elephants (Original Mix) 12:06 05 Zmey - It`s A Fine Day With Opus III 16:54 06 Danny Darko - Butterfly (Original Mix) 21:58 07 16 Bit Lolitas - Premium Emo (Original Mix) 27:12 08 Lank - Passing Time (Original Mix) 34:14 09 Hot Chip - Flutes (Sasha Remix) 40:26 10 Nufects - Especimen 49 (Cut Knob Remix) 47:51 11 Eugene Loner - Dreamcatcher 54:18
Aerodynamix 021 @ Frisky Radio September 2014 mixed by JuanPdata/36-va-aerodynamix_021_mixed_by_juan_prada_friskyradio-sep2014-500px.pngdata/36-va-aerodynamix_021_mixed_by_juan_prada_friskyradio-sep2014.mp3data/36-va-aerodynamix_021_mixed_by_juan_prada_friskyradio-sep2014.ogg
{"Cuesheet":{"performer":"VA [Mixed by JuanP]","title":"Aerodynamix 021 (September 2014) Frisky Radio","file":"36-va-aerodynamix_021_mixed_by_juan_prada_friskyradio-sep2014.mp3"},"Track":[{"performer":"Coro Mixto Pe?a Santa With Ram?n A. Prada Vicente","title":"Agora Non","index":{"time":"00:00:00","frames":0,"seconds":0,"lenseconds":101,"lentime":"01:41"}},{"performer":"Tom Middleton","title":"Glass Raindrops (Feat. Sophie Barker)","index":{"time":"01:41:00","frames":7575,"seconds":101,"lenseconds":241,"lentime":"04:01"}},{"performer":"16 Bit Lolitas","title":"Deep In My Soul (Original Mix)","index":{"time":"05:42:20","frames":25670,"seconds":342,"lenseconds":384,"lentime":"06:24"}},{"performer":"Ten Walls","title":"Walking With Elephants (Original Mix)","index":{"time":"12:06:10","frames":54460,"seconds":726,"lenseconds":288,"lentime":"04:48"}},{"performer":"Zmey","title":"It`s A Fine Day With Opus III","index":{"time":"16:54:10","frames":76060,"seconds":1014,"lenseconds":304,"lentime":"05:04"}},{"performer":"Danny Darko","title":"Butterfly (Original Mix)","index":{"time":"21:58:10","frames":98860,"seconds":1318,"lenseconds":314,"lentime":"05:14"}},{"performer":"16 Bit Lolitas","title":"Premium Emo (Original Mix)","index":{"time":"27:12:10","frames":122410,"seconds":1632,"lenseconds":422,"lentime":"07:02"}},{"performer":"Lank","title":"Passing Time (Original Mix)","index":{"time":"34:14:50","frames":154100,"seconds":2054,"lenseconds":372,"lentime":"06:12"}},{"performer":"Hot Chip","title":"Flutes (Sasha Remix)","index":{"time":"40:26:10","frames":181960,"seconds":2426,"lenseconds":445,"lentime":"07:25"}},{"performer":"Nufects","title":"Especimen 49 (Cut Knob Remix)","index":{"time":"47:51:20","frames":215345,"seconds":2871,"lenseconds":387,"lentime":"06:27"}},{"performer":"Eugene Loner","title":"Dreamcatcher","index":{"time":"54:18:50","frames":244400,"seconds":3258,"lenseconds":342,"lentime":"05:42"}}]}