Carefully constructed music sets for your aural pleasure
Aerodynamix 020 @ Frisky Radio Aug 2014 mixed by JuanP
Progressive House, Tech House
1:00:00
progressive house, tech-house
SHOW TRACKLIST
SHOW CUESHEET
SHOW TXT PL

LOAD IN AUDIO PLAYER

1
Thomas Langner
Good News (Original Mix)
06:06
2
Nemaier
Somewhere
05:20
3
Anton MAKe
Without Looking Back (Alex Vidal Remix)
06:12
4
DJ Feel feat. Zara Taylor
One Life (Raul Pablo Sanchez Deeper Translation Remix)
05:07
5
Kolsch, Gregor Schwellenbach
Cassiopeia Feat. Gregor Schwel
07:41
6
Gui Boratto feat. Come and Hell
Take Control (Original Mix)
05:22
7
Mario Ochoa
Zero (Original Mix)
06:39
8
Lenny Ibizarre vs Deadmau5 vs Velkro vs Geri Halliwell
Bag It Up Barbie!
05:20
9
The Junkies
Quartro Uno Sei (UGLH & Federico Locchi Mix)
05:51
10
Deadmau5 & Kascade
I Remember (James Dyson Remix)
06:22
PERFORMER "VA [Mixed by JuanP]" TITLE "Aerodynamix 020 (August 2014) Frisky Radio" FILE "35-va-aerodynamix_020_mixed_by_juan_prada_friskyradio-aug2014.mp3" WAVE TRACK 01 AUDIO PERFORMER "Thomas Langner" TITLE "Good News (Original Mix)" INDEX 01 00:00:00 TRACK 02 AUDIO PERFORMER "Nemaier" TITLE "Somewhere" INDEX 01 06:06:80 TRACK 03 AUDIO PERFORMER "Anton MAKe" TITLE "Without Looking Back (Alex Vidal Remix)" INDEX 01 11:26:80 TRACK 04 AUDIO PERFORMER "DJ Feel feat. Zara Taylor" TITLE "One Life (Raul Pablo Sanchez Deeper Translation Remix)" INDEX 01 17:38:08 TRACK 05 AUDIO PERFORMER "Kolsch, Gregor Schwellenbach" TITLE "Cassiopeia Feat. Gregor Schwel" INDEX 01 22:45:40 TRACK 06 AUDIO PERFORMER "Gui Boratto feat. Come and Hell" TITLE "Take Control (Original Mix)" INDEX 01 30:26:10 TRACK 07 AUDIO PERFORMER "Mario Ochoa" TITLE "Zero (Original Mix)" INDEX 01 35:48:80 TRACK 08 AUDIO PERFORMER "Lenny Ibizarre vs Deadmau5 vs Velkro vs Geri Halliwell" TITLE "Bag It Up Barbie!" INDEX 01 42:27:70 TRACK 09 AUDIO PERFORMER "The Junkies" TITLE "Quartro Uno Sei (UGLH & Federico Locchi Mix)" INDEX 01 47:47:80 TRACK 10 AUDIO PERFORMER "Deadmau5 & Kascade" TITLE "I Remember (James Dyson Remix)" INDEX 01 53:38:20
01 Thomas Langner - Good News (Original Mix) 00:00 02 Nemaier - Somewhere 06:06 03 Anton MAKe - Without Looking Back (Alex Vidal Remix) 11:26 04 DJ Feel feat. Zara Taylor - One Life (Raul Pablo Sanchez Deeper Translation Remix) 17:38 05 Kolsch, Gregor Schwellenbach - Cassiopeia Feat. Gregor Schwel 22:45 06 Gui Boratto feat. Come and Hell - Take Control (Original Mix) 30:26 07 Mario Ochoa - Zero (Original Mix) 35:48 08 Lenny Ibizarre vs Deadmau5 vs Velkro vs Geri Halliwell - Bag It Up Barbie! 42:27 09 The Junkies - Quartro Uno Sei (UGLH & Federico Locchi Mix) 47:47 10 Deadmau5 & Kascade - I Remember (James Dyson Remix) 53:38
Aerodynamix 020 @ Frisky Radio Aug 2014 mixed by JuanPdata/35-va-aerodynamix_020_mixed_by_juan_prada_friskyradio-aug2014-500px.pngdata/35-va-aerodynamix_020_mixed_by_juan_prada_friskyradio-aug2014.mp3data/35-va-aerodynamix_020_mixed_by_juan_prada_friskyradio-aug2014.ogg
{"Cuesheet":{"performer":"VA [Mixed by JuanP]","title":"Aerodynamix 020 (August 2014) Frisky Radio","file":"35-va-aerodynamix_020_mixed_by_juan_prada_friskyradio-aug2014.mp3"},"Track":[{"performer":"Thomas Langner","title":"Good News (Original Mix)","index":{"time":"00:00:00","frames":0,"seconds":0,"lenseconds":366,"lentime":"06:06"}},{"performer":"Nemaier","title":"Somewhere","index":{"time":"06:06:80","frames":27530,"seconds":366,"lenseconds":320,"lentime":"05:20"}},{"performer":"Anton MAKe","title":"Without Looking Back (Alex Vidal Remix)","index":{"time":"11:26:80","frames":51530,"seconds":686,"lenseconds":372,"lentime":"06:12"}},{"performer":"DJ Feel feat. Zara Taylor","title":"One Life (Raul Pablo Sanchez Deeper Translation Remix)","index":{"time":"17:38:08","frames":79358,"seconds":1058,"lenseconds":307,"lentime":"05:07"}},{"performer":"Kolsch, Gregor Schwellenbach","title":"Cassiopeia Feat. Gregor Schwel","index":{"time":"22:45:40","frames":102415,"seconds":1365,"lenseconds":461,"lentime":"07:41"}},{"performer":"Gui Boratto feat. Come and Hell","title":"Take Control (Original Mix)","index":{"time":"30:26:10","frames":136960,"seconds":1826,"lenseconds":322,"lentime":"05:22"}},{"performer":"Mario Ochoa","title":"Zero (Original Mix)","index":{"time":"35:48:80","frames":161180,"seconds":2148,"lenseconds":399,"lentime":"06:39"}},{"performer":"Lenny Ibizarre vs Deadmau5 vs Velkro vs Geri Halliwell","title":"Bag It Up Barbie!","index":{"time":"42:27:70","frames":191095,"seconds":2547,"lenseconds":320,"lentime":"05:20"}},{"performer":"The Junkies","title":"Quartro Uno Sei (UGLH & Federico Locchi Mix)","index":{"time":"47:47:80","frames":215105,"seconds":2867,"lenseconds":351,"lentime":"05:51"}},{"performer":"Deadmau5 & Kascade","title":"I Remember (James Dyson Remix)","index":{"time":"53:38:20","frames":241370,"seconds":3218,"lenseconds":382,"lentime":"06:22"}}]}