Carefully constructed music sets for your aural pleasure
Aerodynamix 017 @ Frisky Radio May 2014 mixed by JuanP
Deep House, Progressive House
1:00:00
deep house, progressive house
SHOW TRACKLIST
SHOW CUESHEET
SHOW TXT PL

LOAD IN AUDIO PLAYER

1
N'to
The Sand Dealer
07:05
2
Universal Solution
Yukon (Tom Middleton Remix)
06:58
3
Meramek
Feeling (Original Mix)
03:37
4
Martin Selle
Institution (Boss Axis Remix)
06:18
5
David K feat. Yo-C
In Love (Robin Schulz Remix)
05:56
6
FictiOne
I Found U (Yuriy From Russia Morning Remix)
06:11
7
16 Bit Lolitas
Beat Organ (Original Mix)
06:04
8
Derek Howell
On Swift Wings (Original Mix)
05:56
9
Kabeya
Anomaly 2167 (Club Mix)
04:55
10
Above & Beyond
Alchemy feat. Zoe Johnston (Jody Wisternoff Remix)
07:00
PERFORMER "VA [Mixed by JuanP]" TITLE "Aerodynamix 017 (May 2014) Frisky Radio" FILE "32-va-aerodynamix_017_mixed_by_juan_prada_friskyradio-may2014.mp3" WAVE TRACK 01 AUDIO PERFORMER "N'to" TITLE "The Sand Dealer" INDEX 01 00:00:00 TRACK 02 AUDIO PERFORMER "Universal Solution" TITLE "Yukon (Tom Middleton Remix)" INDEX 01 07:05:80 TRACK 03 AUDIO PERFORMER "Meramek" TITLE "Feeling (Original Mix)" INDEX 01 14:03:90 TRACK 04 AUDIO PERFORMER "Martin Selle" TITLE "Institution (Boss Axis Remix)" INDEX 01 17:40:30 TRACK 05 AUDIO PERFORMER "David K feat. Yo-C" TITLE "In Love (Robin Schulz Remix)" INDEX 01 23:58:00 TRACK 06 AUDIO PERFORMER "FictiOne" TITLE "I Found U (Yuriy From Russia Morning Remix)" INDEX 01 29:54:10 TRACK 07 AUDIO PERFORMER "16 Bit Lolitas" TITLE "Beat Organ (Original Mix)" INDEX 01 36:05:70 TRACK 08 AUDIO PERFORMER "Derek Howell" TITLE "On Swift Wings (Original Mix)" INDEX 01 42:09:60 TRACK 09 AUDIO PERFORMER "Kabeya" TITLE "Anomaly 2167 (Club Mix)" INDEX 01 48:05:80 TRACK 10 AUDIO PERFORMER "Above & Beyond" TITLE "Alchemy feat. Zoe Johnston (Jody Wisternoff Remix)" INDEX 01 53:00:00
01 N'to - The Sand Dealer 00:00 02 Universal Solution - Yukon (Tom Middleton Remix) 07:05 03 Meramek - Feeling (Original Mix) 14:03 04 Martin Selle - Institution (Boss Axis Remix) 17:40 05 David K feat. Yo-C - In Love (Robin Schulz Remix) 23:58 06 FictiOne - I Found U (Yuriy From Russia Morning Remix) 29:54 07 16 Bit Lolitas - Beat Organ (Original Mix) 36:05 08 Derek Howell - On Swift Wings (Original Mix) 42:09 09 Kabeya - Anomaly 2167 (Club Mix) 48:05 10 Above & Beyond - Alchemy feat. Zoe Johnston (Jody Wisternoff Remix) 53:00
Aerodynamix 017 @ Frisky Radio May 2014 mixed by JuanPdata/32-va-aerodynamix_017_mixed_by_juan_prada_friskyradio-may2014-500px.pngdata/32-va-aerodynamix_017_mixed_by_juan_prada_friskyradio-may2014.mp3data/32-va-aerodynamix_017_mixed_by_juan_prada_friskyradio-may2014.ogg
{"Cuesheet":{"performer":"VA [Mixed by JuanP]","title":"Aerodynamix 017 (May 2014) Frisky Radio","file":"32-va-aerodynamix_017_mixed_by_juan_prada_friskyradio-may2014.mp3"},"Track":[{"performer":"N'to","title":"The Sand Dealer","index":{"time":"00:00:00","frames":0,"seconds":0,"lenseconds":425,"lentime":"07:05"}},{"performer":"Universal Solution","title":"Yukon (Tom Middleton Remix)","index":{"time":"07:05:80","frames":31955,"seconds":425,"lenseconds":418,"lentime":"06:58"}},{"performer":"Meramek","title":"Feeling (Original Mix)","index":{"time":"14:03:90","frames":63315,"seconds":843,"lenseconds":217,"lentime":"03:37"}},{"performer":"Martin Selle","title":"Institution (Boss Axis Remix)","index":{"time":"17:40:30","frames":79530,"seconds":1060,"lenseconds":378,"lentime":"06:18"}},{"performer":"David K feat. Yo-C","title":"In Love (Robin Schulz Remix)","index":{"time":"23:58:00","frames":107850,"seconds":1438,"lenseconds":356,"lentime":"05:56"}},{"performer":"FictiOne","title":"I Found U (Yuriy From Russia Morning Remix)","index":{"time":"29:54:10","frames":134560,"seconds":1794,"lenseconds":371,"lentime":"06:11"}},{"performer":"16 Bit Lolitas","title":"Beat Organ (Original Mix)","index":{"time":"36:05:70","frames":162445,"seconds":2165,"lenseconds":364,"lentime":"06:04"}},{"performer":"Derek Howell","title":"On Swift Wings (Original Mix)","index":{"time":"42:09:60","frames":189735,"seconds":2529,"lenseconds":356,"lentime":"05:56"}},{"performer":"Kabeya","title":"Anomaly 2167 (Club Mix)","index":{"time":"48:05:80","frames":216455,"seconds":2885,"lenseconds":295,"lentime":"04:55"}},{"performer":"Above & Beyond","title":"Alchemy feat. Zoe Johnston (Jody Wisternoff Remix)","index":{"time":"53:00:00","frames":238500,"seconds":3180,"lenseconds":420,"lentime":"07:00"}}]}