Carefully constructed music sets for your aural pleasure
Jan 2011: Vocal Progressive House Retrospectr II by JuanP
Vocal dance/progressive house quality tracks. Download cuesheet here: http://goo.gl/b6ebc
1:41:58
progressive house, trance, house, vocal, electronic, session, set
SHOW TRACKLIST
SHOW CUESHEET
SHOW TXT PL

LOAD IN AUDIO PLAYER

1
Trentemøller
Moan (A1) (Trentemøller Remix)
03:50
2
Ricky L feat. M:CK
Born Again (Pastaboys Main Mix)
05:52
3
Hercules & Love Affair
Blind (Frankie Knuckles Remix)
04:52
4
Junior Boys
Hazel (Ewan Pearson's House Mix)
06:55
5
Paul And Fritz Kalkbrenner
Sky and Sand
07:04
6
Rachael Starr
To Forever (Moonbeam Remix)
04:45
7
Chris Isaak
Wicked Game (Promonova Remix)
04:38
8
Rah Band
Clouds Across The Moon (Neuroxyde Meets Aki Bergen Remix)
04:37
9
David Guetta ft Kelly Rowland
When Love Takes Over (Norman Doday and Arno Cost Remix)
03:53
10
Kaskade & Deadmau5
Move For Me (Extended Remix)
05:00
11
Sudha Feat Zoe Johnston
Leche (Thomas Schwartz & Fausto Fanizza Vocal Mix)
04:58
12
Hokkaido Feat. Ange
Here To Stay (Mango Remix)
05:33
13
Andrea Doria, LXR
Beauty Of Silence (Inpetto Full Vox Remix)
05:51
14
Airbase ft. Floria Ambra
Denial
05:46
15
Chicane Feat Marie Brenhan
Saltwater 2009 (Paul Thomas Mix)
04:53
16
We Love 90 Feat Jade
Right In The Night (Billions Dollars Dogs And Vincenzo Callea Fast DJ Club Mix)
06:06
17
Imogen Heap
Hide & Seek (Randy Boyer & Eric Tadla Mix AKA EnMass Rmx)
04:29
18
Marcella
Inside (Ibiza Return Mix)
05:45
19
Hybrid
Break My Soul (Hybrid's Kill City Sounds Mix 01)
07:11
PERFORMER "VA [Mixed by Juan Prada]" TITLE "January 2010: Vocal Progressive House Retrospective II by JP" FILE "03-va-jan2011_vocal_progressive_house_retrospectr_2_mixed_by_juan_prada.mp3" WAVE TRACK 01 AUDIO TITLE "Moan (A1) (Trentemøller Remix)" PERFORMER "Trentemøller" INDEX 01 00:00:00 TRACK 02 AUDIO TITLE "Born Again (Pastaboys Main Mix)" PERFORMER "Ricky L feat. M:CK" INDEX 01 03:50:00 TRACK 03 AUDIO TITLE "Blind (Frankie Knuckles Remix)" PERFORMER "Hercules & Love Affair" INDEX 01 09:42:00 TRACK 04 AUDIO TITLE "Hazel (Ewan Pearson's House Mix)" PERFORMER "Junior Boys" INDEX 01 14:34:00 TRACK 05 AUDIO TITLE "Sky and Sand" PERFORMER "Paul And Fritz Kalkbrenner" INDEX 01 21:29:00 TRACK 06 AUDIO TITLE "To Forever (Moonbeam Remix)" PERFORMER "Rachael Starr" INDEX 01 28:33:50 TRACK 07 AUDIO TITLE "Wicked Game (Promonova Remix)" PERFORMER "Chris Isaak" INDEX 01 33:18:00 TRACK 08 AUDIO TITLE "Clouds Across The Moon (Neuroxyde Meets Aki Bergen Remix)" PERFORMER "Rah Band" INDEX 01 37:56:00 TRACK 09 AUDIO TITLE "When Love Takes Over (Norman Doday and Arno Cost Remix)" PERFORMER "David Guetta ft Kelly Rowland" INDEX 01 42:33:00 TRACK 10 AUDIO TITLE "Move For Me (Extended Remix)" PERFORMER "Kaskade & Deadmau5" INDEX 01 46:26:00 TRACK 11 AUDIO TITLE "Leche (Thomas Schwartz & Fausto Fanizza Vocal Mix)" PERFORMER "Sudha Feat Zoe Johnston" INDEX 01 51:26:00 TRACK 12 AUDIO TITLE "Here To Stay (Mango Remix)" PERFORMER "Hokkaido Feat. Ange" INDEX 01 56:24:00 TRACK 13 AUDIO TITLE "Beauty Of Silence (Inpetto Full Vox Remix)" PERFORMER "Andrea Doria, LXR" INDEX 01 61:57:50 TRACK 14 AUDIO TITLE "Denial" PERFORMER "Airbase ft. Floria Ambra" INDEX 01 67:48:00 TRACK 15 AUDIO TITLE "Saltwater 2009 (Paul Thomas Mix)" PERFORMER "Chicane Feat Marie Brenhan" INDEX 01 73:34:00 TRACK 16 AUDIO TITLE "Right In The Night (Billions Dollars Dogs And Vincenzo Callea Fast DJ Club Mix)" PERFORMER "We Love 90 Feat Jade" INDEX 01 78:27:00 TRACK 17 AUDIO TITLE "Hide & Seek (Randy Boyer & Eric Tadla Mix AKA EnMass Rmx)" PERFORMER "Imogen Heap" INDEX 01 84:33:00 TRACK 18 AUDIO TITLE "Inside (Ibiza Return Mix)" PERFORMER "Marcella" INDEX 01 89:02:00 TRACK 19 AUDIO TITLE "Break My Soul (Hybrid's Kill City Sounds Mix 01)" PERFORMER "Hybrid" INDEX 01 94:47:00
01 Trentemøller - Moan (A1) (Trentemøller Remix) 00:00 02 Ricky L feat. M:CK - Born Again (Pastaboys Main Mix) 03:50 03 Hercules & Love Affair - Blind (Frankie Knuckles Remix) 09:42 04 Junior Boys - Hazel (Ewan Pearson's House Mix) 14:34 05 Paul And Fritz Kalkbrenner - Sky and Sand 21:29 06 Rachael Starr - To Forever (Moonbeam Remix) 28:33 07 Chris Isaak - Wicked Game (Promonova Remix) 33:18 08 Rah Band - Clouds Across The Moon (Neuroxyde Meets Aki Bergen Remix) 37:56 09 David Guetta ft Kelly Rowland - When Love Takes Over (Norman Doday and Arno Cost Remix) 42:33 10 Kaskade & Deadmau5 - Move For Me (Extended Remix) 46:26 11 Sudha Feat Zoe Johnston - Leche (Thomas Schwartz & Fausto Fanizza Vocal Mix) 51:26 12 Hokkaido Feat. Ange - Here To Stay (Mango Remix) 56:24 13 Andrea Doria, LXR - Beauty Of Silence (Inpetto Full Vox Remix) 61:57 14 Airbase ft. Floria Ambra - Denial 67:48 15 Chicane Feat Marie Brenhan - Saltwater 2009 (Paul Thomas Mix) 73:34 16 We Love 90 Feat Jade - Right In The Night (Billions Dollars Dogs And Vincenzo Callea Fast DJ Club Mix) 78:27 17 Imogen Heap - Hide & Seek (Randy Boyer & Eric Tadla Mix AKA EnMass Rmx) 84:33 18 Marcella - Inside (Ibiza Return Mix) 89:02 19 Hybrid - Break My Soul (Hybrid's Kill City Sounds Mix 01) 94:47
Jan 2011: Vocal Progressive House Retrospectr II by JuanPdata/03-va-jan2011_vocal_progressive_house_retrospectr_2_mixed_by_juan_prada.jpgdata/03-va-jan2011_vocal_progressive_house_retrospectr_2_mixed_by_juan_prada.mp3data/03-va-jan2011_vocal_progressive_house_retrospectr_2_mixed_by_juan_prada.ogg
{"Cuesheet":{"performer":"VA [Mixed by Juan Prada]","title":"January 2010: Vocal Progressive House Retrospective II by JP","file":"03-va-jan2011_vocal_progressive_house_retrospectr_2_mixed_by_juan_prada.mp3"},"Track":[{"title":"Moan (A1) (Trentem\u00f8ller Remix)","performer":"Trentem\u00f8ller","index":{"time":"00:00:00","frames":0,"seconds":0,"lenseconds":230,"lentime":"03:50"}},{"title":"Born Again (Pastaboys Main Mix)","performer":"Ricky L feat. M:CK","index":{"time":"03:50:00","frames":17250,"seconds":230,"lenseconds":352,"lentime":"05:52"}},{"title":"Blind (Frankie Knuckles Remix)","performer":"Hercules & Love Affair","index":{"time":"09:42:00","frames":43650,"seconds":582,"lenseconds":292,"lentime":"04:52"}},{"title":"Hazel (Ewan Pearson's House Mix)","performer":"Junior Boys","index":{"time":"14:34:00","frames":65550,"seconds":874,"lenseconds":415,"lentime":"06:55"}},{"title":"Sky and Sand","performer":"Paul And Fritz Kalkbrenner","index":{"time":"21:29:00","frames":96675,"seconds":1289,"lenseconds":424,"lentime":"07:04"}},{"title":"To Forever (Moonbeam Remix)","performer":"Rachael Starr","index":{"time":"28:33:50","frames":128525,"seconds":1713,"lenseconds":285,"lentime":"04:45"}},{"title":"Wicked Game (Promonova Remix)","performer":"Chris Isaak","index":{"time":"33:18:00","frames":149850,"seconds":1998,"lenseconds":278,"lentime":"04:38"}},{"title":"Clouds Across The Moon (Neuroxyde Meets Aki Bergen Remix)","performer":"Rah Band","index":{"time":"37:56:00","frames":170700,"seconds":2276,"lenseconds":277,"lentime":"04:37"}},{"title":"When Love Takes Over (Norman Doday and Arno Cost Remix)","performer":"David Guetta ft Kelly Rowland","index":{"time":"42:33:00","frames":191475,"seconds":2553,"lenseconds":233,"lentime":"03:53"}},{"title":"Move For Me (Extended Remix)","performer":"Kaskade & Deadmau5","index":{"time":"46:26:00","frames":208950,"seconds":2786,"lenseconds":300,"lentime":"05:00"}},{"title":"Leche (Thomas Schwartz & Fausto Fanizza Vocal Mix)","performer":"Sudha Feat Zoe Johnston","index":{"time":"51:26:00","frames":231450,"seconds":3086,"lenseconds":298,"lentime":"04:58"}},{"title":"Here To Stay (Mango Remix)","performer":"Hokkaido Feat. Ange","index":{"time":"56:24:00","frames":253800,"seconds":3384,"lenseconds":333,"lentime":"05:33"}},{"title":"Beauty Of Silence (Inpetto Full Vox Remix)","performer":"Andrea Doria, LXR","index":{"time":"61:57:50","frames":278825,"seconds":3717,"lenseconds":351,"lentime":"05:51"}},{"title":"Denial","performer":"Airbase ft. Floria Ambra","index":{"time":"67:48:00","frames":305100,"seconds":4068,"lenseconds":346,"lentime":"05:46"}},{"title":"Saltwater 2009 (Paul Thomas Mix)","performer":"Chicane Feat Marie Brenhan","index":{"time":"73:34:00","frames":331050,"seconds":4414,"lenseconds":293,"lentime":"04:53"}},{"title":"Right In The Night (Billions Dollars Dogs And Vincenzo Callea Fast DJ Club Mix)","performer":"We Love 90 Feat Jade","index":{"time":"78:27:00","frames":353025,"seconds":4707,"lenseconds":366,"lentime":"06:06"}},{"title":"Hide & Seek (Randy Boyer & Eric Tadla Mix AKA EnMass Rmx)","performer":"Imogen Heap","index":{"time":"84:33:00","frames":380475,"seconds":5073,"lenseconds":269,"lentime":"04:29"}},{"title":"Inside (Ibiza Return Mix)","performer":"Marcella","index":{"time":"89:02:00","frames":400650,"seconds":5342,"lenseconds":345,"lentime":"05:45"}},{"title":"Break My Soul (Hybrid's Kill City Sounds Mix 01)","performer":"Hybrid","index":{"time":"94:47:00","frames":426525,"seconds":5687,"lenseconds":431,"lentime":"07:11"}}]}