Carefully constructed music sets for your aural pleasure
Aerodynamix 012 @ Frisky Radio December 2013 mixed by JuanP
Deep House, Nu Disco, House
1:00:00
deep house, nu disco, house
SHOW TRACKLIST
SHOW CUESHEET
SHOW TXT PL

LOAD IN AUDIO PLAYER

1
Lusine
Another Tomorrow
04:13
2
Kyodai
Music Rises Up ft. Stee_Downes (Claptone Remix)
03:41
3
Kant
Hold You (Going Deeper Remix)
05:14
4
Lissat & Voltaxx, Marc Fisher
Groovejet (Andrey Exx & Fomichev Remix)
04:10
5
Andhim
Boy Boy Boy (Original Mix)
04:17
6
Haim
Falling (Duke Dumont Remix)
04:10
7
Kavinsky
Nightcall (Eewas Cesium Remix)
04:41
8
Enviado Vida
If I Could Live Again (Tv, Av Remix)
04:21
9
Dillon Francis
Without You (feat. Totally Enormous Extinct Dinosaurs)
03:54
10
DJ Monique Vs. The Voice of Rita
Dreams (M.A.N.D.Y. Remix)
05:01
11
Röyksopp
Running to the Sea feat. Susanne Sundfør (Pachanga Boys Remix)
09:22
12
Napalm
Hazy Memories (Yuriy From Russia Remix)
06:56
PERFORMER "VA [Mixed by JuanP]" TITLE "Aerodynamix 012 (December 2013)" FILE "27-va-aerodynamix_012_mixed_by_juan_prada_friskyradio-dec2013.mp3" WAVE TRACK 01 AUDIO PERFORMER "Lusine" TITLE "Another Tomorrow" INDEX 01 00:00:00 TRACK 02 AUDIO PERFORMER "Kyodai" TITLE "Music Rises Up ft. Stee_Downes (Claptone Remix)" INDEX 01 04:13:50 TRACK 03 AUDIO PERFORMER "Kant" TITLE "Hold You (Going Deeper Remix)" INDEX 01 07:54:00 TRACK 04 AUDIO PERFORMER "Lissat & Voltaxx, Marc Fisher" TITLE "Groovejet (Andrey Exx & Fomichev Remix)" INDEX 01 13:08:00 TRACK 05 AUDIO PERFORMER "Andhim" TITLE "Boy Boy Boy (Original Mix)" INDEX 01 17:18:00 TRACK 06 AUDIO PERFORMER "Haim" TITLE "Falling (Duke Dumont Remix)" INDEX 01 21:35:45 TRACK 07 AUDIO PERFORMER "Kavinsky" TITLE "Nightcall (Eewas Cesium Remix)" INDEX 01 25:45:15 TRACK 08 AUDIO PERFORMER "Enviado Vida" TITLE "If I Could Live Again (Tv, Av Remix)" INDEX 01 30:26:20 TRACK 09 AUDIO PERFORMER "Dillon Francis" TITLE "Without You (feat. Totally Enormous Extinct Dinosaurs)" INDEX 01 34:47:60 TRACK 10 AUDIO PERFORMER "DJ Monique Vs. The Voice of Rita" TITLE "Dreams (M.A.N.D.Y. Remix)" INDEX 01 38:41:90 TRACK 11 AUDIO PERFORMER "Röyksopp" TITLE "Running to the Sea feat. Susanne Sundfør (Pachanga Boys Remix)" INDEX 01 43:42:25 TRACK 12 AUDIO PERFORMER "Napalm" TITLE "Hazy Memories (Yuriy From Russia Remix)" INDEX 01 53:04:25
01 Lusine - Another Tomorrow 00:00 02 Kyodai - Music Rises Up ft. Stee_Downes (Claptone Remix) 04:13 03 Kant - Hold You (Going Deeper Remix) 07:54 04 Lissat & Voltaxx, Marc Fisher - Groovejet (Andrey Exx & Fomichev Remix) 13:08 05 Andhim - Boy Boy Boy (Original Mix) 17:18 06 Haim - Falling (Duke Dumont Remix) 21:35 07 Kavinsky - Nightcall (Eewas Cesium Remix) 25:45 08 Enviado Vida - If I Could Live Again (Tv, Av Remix) 30:26 09 Dillon Francis - Without You (feat. Totally Enormous Extinct Dinosaurs) 34:47 10 DJ Monique Vs. The Voice of Rita - Dreams (M.A.N.D.Y. Remix) 38:41 11 Röyksopp - Running to the Sea feat. Susanne Sundfør (Pachanga Boys Remix) 43:42 12 Napalm - Hazy Memories (Yuriy From Russia Remix) 53:04
Aerodynamix 012 @ Frisky Radio December 2013 mixed by JuanPdata/27-va-aerodynamix_012_mixed_by_juan_prada_friskyradio-dec2013-500px.pngdata/27-va-aerodynamix_012_mixed_by_juan_prada_friskyradio-dec2013.mp3data/27-va-aerodynamix_012_mixed_by_juan_prada_friskyradio-dec2013.ogg
{"Cuesheet":{"performer":"VA [Mixed by JuanP]","title":"Aerodynamix 012 (December 2013)","file":"27-va-aerodynamix_012_mixed_by_juan_prada_friskyradio-dec2013.mp3"},"Track":[{"performer":"Lusine","title":"Another Tomorrow","index":{"time":"00:00:00","frames":0,"seconds":0,"lenseconds":253,"lentime":"04:13"}},{"performer":"Kyodai","title":"Music Rises Up ft. Stee_Downes (Claptone Remix)","index":{"time":"04:13:50","frames":19025,"seconds":253,"lenseconds":221,"lentime":"03:41"}},{"performer":"Kant","title":"Hold You (Going Deeper Remix)","index":{"time":"07:54:00","frames":35550,"seconds":474,"lenseconds":314,"lentime":"05:14"}},{"performer":"Lissat & Voltaxx, Marc Fisher","title":"Groovejet (Andrey Exx & Fomichev Remix)","index":{"time":"13:08:00","frames":59100,"seconds":788,"lenseconds":250,"lentime":"04:10"}},{"performer":"Andhim","title":"Boy Boy Boy (Original Mix)","index":{"time":"17:18:00","frames":77850,"seconds":1038,"lenseconds":257,"lentime":"04:17"}},{"performer":"Haim","title":"Falling (Duke Dumont Remix)","index":{"time":"21:35:45","frames":97170,"seconds":1295,"lenseconds":250,"lentime":"04:10"}},{"performer":"Kavinsky","title":"Nightcall (Eewas Cesium Remix)","index":{"time":"25:45:15","frames":115890,"seconds":1545,"lenseconds":281,"lentime":"04:41"}},{"performer":"Enviado Vida","title":"If I Could Live Again (Tv, Av Remix)","index":{"time":"30:26:20","frames":136970,"seconds":1826,"lenseconds":261,"lentime":"04:21"}},{"performer":"Dillon Francis","title":"Without You (feat. Totally Enormous Extinct Dinosaurs)","index":{"time":"34:47:60","frames":156585,"seconds":2087,"lenseconds":234,"lentime":"03:54"}},{"performer":"DJ Monique Vs. The Voice of Rita","title":"Dreams (M.A.N.D.Y. Remix)","index":{"time":"38:41:90","frames":174165,"seconds":2321,"lenseconds":301,"lentime":"05:01"}},{"performer":"R\u00f6yksopp","title":"Running to the Sea feat. Susanne Sundf\u00f8r (Pachanga Boys Remix)","index":{"time":"43:42:25","frames":196675,"seconds":2622,"lenseconds":562,"lentime":"09:22"}},{"performer":"Napalm","title":"Hazy Memories (Yuriy From Russia Remix)","index":{"time":"53:04:25","frames":238825,"seconds":3184,"lenseconds":416,"lentime":"06:56"}}]}