Carefully constructed music sets for your aural pleasure
Aerodynamix 010 @ Frisky Radio October 2013 mixed by JuanP
Deep House, Progressive House, Breakbeats
1:00:00
deep house, progressive house, breakbeats
SHOW TRACKLIST
SHOW CUESHEET
SHOW TXT PL

LOAD IN AUDIO PLAYER

1
Taho
Atlantess
04:51
2
Discopolis
Falling (Committed To Sparkle Motion) (CLMD Remix)
06:09
3
Jody Wisternoff Feat Pete Josef
We Are Heroes
04:40
4
Advent's Rising
The Chant (Napalm Remix)
05:07
5
JOSEL
Jenny The Junkie (Demian Deep Mix)
05:54
6
Mirror People
Kaleidoscope (Psychemagik Remix)
04:59
7
Jeremy Olander, Kent
Petroleum (Original Mix)
03:51
8
fuckmylife AKA Joel Zimmerman
Mercedes (Soundcloud Rip Remastered by Juan Prada)
06:04
9
Javanny
Dreamer
04:51
10
Kaan Koray
Heart Of Africa (Deep Fog Remix)
06:33
11
Hybrid
Formula of Fear (Hybrid Remix)
07:01
PERFORMER "VA [Mixed by JuanP]" TITLE "Aerodynamix 010 @ FriskyRadio (October 2013)" FILE "25-va-aerodynamix_010_mixed_by_juan_prada_friskyradio-oct2013.mp3" WAVE TRACK 01 AUDIO PERFORMER "Taho" TITLE "Atlantess" INDEX 01 00:00:00 TRACK 02 AUDIO PERFORMER "Discopolis" TITLE "Falling (Committed To Sparkle Motion) (CLMD Remix)" INDEX 01 04:51:80 TRACK 03 AUDIO PERFORMER "Jody Wisternoff Feat Pete Josef" TITLE "We Are Heroes" INDEX 01 11:00:20 TRACK 04 AUDIO PERFORMER "Advent's Rising" TITLE "The Chant (Napalm Remix)" INDEX 01 15:40:60 TRACK 05 AUDIO PERFORMER "JOSEL" TITLE "Jenny The Junkie (Demian Deep Mix)" INDEX 01 20:47:90 TRACK 06 AUDIO PERFORMER "Mirror People" TITLE "Kaleidoscope (Psychemagik Remix)" INDEX 01 26:41:00 TRACK 07 AUDIO PERFORMER "Jeremy Olander, Kent" TITLE "Petroleum (Original Mix)" INDEX 01 31:40:50 TRACK 08 AUDIO PERFORMER "fuckmylife AKA Joel Zimmerman" TITLE "Mercedes (Soundcloud Rip Remastered by Juan Prada)" INDEX 01 35:31:00 TRACK 09 AUDIO PERFORMER "Javanny" TITLE "Dreamer" INDEX 01 41:35:30 TRACK 10 AUDIO PERFORMER "Kaan Koray" TITLE "Heart Of Africa (Deep Fog Remix)" INDEX 01 46:26:20 TRACK 11 AUDIO PERFORMER "Hybrid" TITLE "Formula of Fear (Hybrid Remix)" INDEX 01 52:59:35
01 Taho - Atlantess 00:00 02 Discopolis - Falling (Committed To Sparkle Motion) (CLMD Remix) 04:51 03 Jody Wisternoff Feat Pete Josef - We Are Heroes 11:00 04 Advent's Rising - The Chant (Napalm Remix) 15:40 05 JOSEL - Jenny The Junkie (Demian Deep Mix) 20:47 06 Mirror People - Kaleidoscope (Psychemagik Remix) 26:41 07 Jeremy Olander, Kent - Petroleum (Original Mix) 31:40 08 fuckmylife AKA Joel Zimmerman - Mercedes (Soundcloud Rip Remastered by Juan Prada) 35:31 09 Javanny - Dreamer 41:35 10 Kaan Koray - Heart Of Africa (Deep Fog Remix) 46:26 11 Hybrid - Formula of Fear (Hybrid Remix) 52:59
Aerodynamix 010 @ Frisky Radio October 2013 mixed by JuanPdata/25-va-aerodynamix_010_mixed_by_juan_prada_friskyradio-oct2013-500px.pngdata/25-va-aerodynamix_010_mixed_by_juan_prada_friskyradio-oct2013.mp3data/25-va-aerodynamix_010_mixed_by_juan_prada_friskyradio-oct2013.ogg
{"Cuesheet":{"performer":"VA [Mixed by JuanP]","title":"Aerodynamix 010 @ FriskyRadio (October 2013)","file":"25-va-aerodynamix_010_mixed_by_juan_prada_friskyradio-oct2013.mp3"},"Track":[{"performer":"Taho","title":"Atlantess","index":{"time":"00:00:00","frames":0,"seconds":0,"lenseconds":291,"lentime":"04:51"}},{"performer":"Discopolis","title":"Falling (Committed To Sparkle Motion) (CLMD Remix)","index":{"time":"04:51:80","frames":21905,"seconds":291,"lenseconds":369,"lentime":"06:09"}},{"performer":"Jody Wisternoff Feat Pete Josef","title":"We Are Heroes","index":{"time":"11:00:20","frames":49520,"seconds":660,"lenseconds":280,"lentime":"04:40"}},{"performer":"Advent's Rising","title":"The Chant (Napalm Remix)","index":{"time":"15:40:60","frames":70560,"seconds":940,"lenseconds":307,"lentime":"05:07"}},{"performer":"JOSEL","title":"Jenny The Junkie (Demian Deep Mix)","index":{"time":"20:47:90","frames":93615,"seconds":1247,"lenseconds":354,"lentime":"05:54"}},{"performer":"Mirror People","title":"Kaleidoscope (Psychemagik Remix)","index":{"time":"26:41:00","frames":120075,"seconds":1601,"lenseconds":299,"lentime":"04:59"}},{"performer":"Jeremy Olander, Kent","title":"Petroleum (Original Mix)","index":{"time":"31:40:50","frames":142550,"seconds":1900,"lenseconds":231,"lentime":"03:51"}},{"performer":"fuckmylife AKA Joel Zimmerman","title":"Mercedes (Soundcloud Rip Remastered by Juan Prada)","index":{"time":"35:31:00","frames":159825,"seconds":2131,"lenseconds":364,"lentime":"06:04"}},{"performer":"Javanny","title":"Dreamer","index":{"time":"41:35:30","frames":187155,"seconds":2495,"lenseconds":291,"lentime":"04:51"}},{"performer":"Kaan Koray","title":"Heart Of Africa (Deep Fog Remix)","index":{"time":"46:26:20","frames":208970,"seconds":2786,"lenseconds":393,"lentime":"06:33"}},{"performer":"Hybrid","title":"Formula of Fear (Hybrid Remix)","index":{"time":"52:59:35","frames":238460,"seconds":3179,"lenseconds":421,"lentime":"07:01"}}]}