Carefully constructed music sets for your aural pleasure
Aerodynamix 007 @ Frisky Radio July 2013 mixed by JuanP
http://www.friskyradio.com/show/aerodynamix/07-18-2013/
House, Nu-Disco, Progressive House. Download cuesheet here: http://goo.gl/H00cx
1:00:00
progressive trance, nu disco, progressive house, electronic, session, set
SHOW TRACKLIST
SHOW CUESHEET
SHOW TXT PL

LOAD IN AUDIO PLAYER

1
Da Funk
Smug (Original Mix)
06:19
2
Labtracks
It's not over (Original Mix)
04:08
3
Monarchy
Cry Me A River VS Memories of the Future (Monarchy's Soundcloud Mashup)
02:50
4
Gunjah
Bakerboy (Original Mix)
05:10
5
Le Carousel
Carousel (Phil Kieran Mix)
04:23
6
Mr. Fingers
Can You Feel It (JuanP's Extended Beats Mix)
04:15
7
Guy J & Miriam Vega
No Under But You
04:54
8
Benjamin Damage & Doc Daneeka
Battleships (feat. Abigail Wyles - Sasha Involv3r Remix)
08:01
9
Jonas Mantey
Sie Ist Schoien (Original Mix)
05:32
10
Taho Cerebro
Mon Bala (Original Mix)
07:07
11
Paronator
No Gravity (Tom Middleton Liquatech Mix)
07:21
PERFORMER "VA [Mixed by JuanP]" TITLE "Aerodynamix 007 @ FriskyRadio (July 2013)" FILE "22-va-aerodynamix_007_mixed_by_juan_prada_friskyradio-jul2013.mp3" WAVE TRACK 01 AUDIO PERFORMER "Da Funk" TITLE "Smug (Original Mix)" INDEX 01 00:00:00 TRACK 02 AUDIO PERFORMER "Labtracks" TITLE "It's not over (Original Mix)" INDEX 01 06:19:00 TRACK 03 AUDIO PERFORMER "Monarchy" TITLE "Cry Me A River VS Memories of the Future (Monarchy's Soundcloud Mashup)" INDEX 01 10:27:00 TRACK 04 AUDIO PERFORMER "Gunjah" TITLE "Bakerboy (Original Mix)" INDEX 01 13:17:00 TRACK 05 AUDIO PERFORMER "Le Carousel" TITLE "Carousel (Phil Kieran Mix)" INDEX 01 18:27:00 TRACK 06 AUDIO PERFORMER "Mr. Fingers" TITLE "Can You Feel It (JuanP's Extended Beats Mix)" INDEX 01 22:50:00 TRACK 07 AUDIO PERFORMER "Guy J & Miriam Vega" TITLE "No Under But You" INDEX 01 27:05:50 TRACK 08 AUDIO PERFORMER "Benjamin Damage & Doc Daneeka" TITLE "Battleships (feat. Abigail Wyles - Sasha Involv3r Remix)" INDEX 01 31:59:80 TRACK 09 AUDIO PERFORMER "Jonas Mantey" TITLE "Sie Ist Schoien (Original Mix)" INDEX 01 40:00:00 TRACK 10 AUDIO PERFORMER "Taho Cerebro" TITLE "Mon Bala (Original Mix)" INDEX 01 45:32:80 TRACK 11 AUDIO PERFORMER "Paronator" TITLE "No Gravity (Tom Middleton Liquatech Mix)" INDEX 01 52:39:50
01 Da Funk - Smug (Original Mix) 00:00 02 Labtracks - It's not over (Original Mix) 06:19 03 Monarchy - Cry Me A River VS Memories of the Future (Monarchy's Soundcloud Mashup) 10:27 04 Gunjah - Bakerboy (Original Mix) 13:17 05 Le Carousel - Carousel (Phil Kieran Mix) 18:27 06 Mr. Fingers - Can You Feel It (JuanP's Extended Beats Mix) 22:50 07 Guy J & Miriam Vega - No Under But You 27:05 08 Benjamin Damage & Doc Daneeka - Battleships (feat. Abigail Wyles - Sasha Involv3r Remix) 31:59 09 Jonas Mantey - Sie Ist Schoien (Original Mix) 40:00 10 Taho Cerebro - Mon Bala (Original Mix) 45:32 11 Paronator - No Gravity (Tom Middleton Liquatech Mix) 52:39
Aerodynamix 007 @ Frisky Radio July 2013 mixed by JuanPdata/22-va-aerodynamix_007_mixed_by_juan_prada_friskyradio-jul2013-500px.pngdata/22-va-aerodynamix_007_mixed_by_juan_prada_friskyradio-jul2013.mp3data/22-va-aerodynamix_007_mixed_by_juan_prada_friskyradio-jul2013.ogg
{"Cuesheet":{"performer":"VA [Mixed by JuanP]","title":"Aerodynamix 007 @ FriskyRadio (July 2013)","file":"22-va-aerodynamix_007_mixed_by_juan_prada_friskyradio-jul2013.mp3"},"Track":[{"performer":"Da Funk","title":"Smug (Original Mix)","index":{"time":"00:00:00","frames":0,"seconds":0,"lenseconds":379,"lentime":"06:19"}},{"performer":"Labtracks","title":"It's not over (Original Mix)","index":{"time":"06:19:00","frames":28425,"seconds":379,"lenseconds":248,"lentime":"04:08"}},{"performer":"Monarchy","title":"Cry Me A River VS Memories of the Future (Monarchy's Soundcloud Mashup)","index":{"time":"10:27:00","frames":47025,"seconds":627,"lenseconds":170,"lentime":"02:50"}},{"performer":"Gunjah","title":"Bakerboy (Original Mix)","index":{"time":"13:17:00","frames":59775,"seconds":797,"lenseconds":310,"lentime":"05:10"}},{"performer":"Le Carousel","title":"Carousel (Phil Kieran Mix)","index":{"time":"18:27:00","frames":83025,"seconds":1107,"lenseconds":263,"lentime":"04:23"}},{"performer":"Mr. Fingers","title":"Can You Feel It (JuanP's Extended Beats Mix)","index":{"time":"22:50:00","frames":102750,"seconds":1370,"lenseconds":255,"lentime":"04:15"}},{"performer":"Guy J & Miriam Vega","title":"No Under But You","index":{"time":"27:05:50","frames":121925,"seconds":1625,"lenseconds":294,"lentime":"04:54"}},{"performer":"Benjamin Damage & Doc Daneeka","title":"Battleships (feat. Abigail Wyles - Sasha Involv3r Remix)","index":{"time":"31:59:80","frames":144005,"seconds":1919,"lenseconds":481,"lentime":"08:01"}},{"performer":"Jonas Mantey","title":"Sie Ist Schoien (Original Mix)","index":{"time":"40:00:00","frames":180000,"seconds":2400,"lenseconds":332,"lentime":"05:32"}},{"performer":"Taho Cerebro","title":"Mon Bala (Original Mix)","index":{"time":"45:32:80","frames":204980,"seconds":2732,"lenseconds":427,"lentime":"07:07"}},{"performer":"Paronator","title":"No Gravity (Tom Middleton Liquatech Mix)","index":{"time":"52:39:50","frames":236975,"seconds":3159,"lenseconds":441,"lentime":"07:21"}}]}