Carefully constructed music sets for your aural pleasure
Aerodynamix 006 @ Frisky Radio June 2013 mixed by JuanP
http://www.friskyradio.com/show/aerodynamix/06-20-2013/
Trance. Download cuesheet here: http://goo.gl/dPL13
0:59:55
trance, session, set
SHOW TRACKLIST
SHOW CUESHEET
SHOW TXT PL

LOAD IN AUDIO PLAYER

1
Terry Da Libra
Don't Give Up
06:09
2
Audien
Eleven Eleven
05:28
3
Ferry Tale & Satic Blue
Trapeze (Arty Remix)
06:02
4
Estiva
Smiley Smilesworth (Original Mix)
03:31
5
Above and Beyond feat. Zoe Johnston
Alchemy (Myon and Shane 54 Redemption Mix)
07:16
6
Temple One
World Beyond (Daniel Kandi & Philip Alpha Remix)
05:31
7
7 Skies & Kiholm
Lost & Found (Dan Stone Remix)
05:43
8
Adam Nickey Presents Blue 8
Eleventh Street (Suncatcher Remix)
07:03
9
Dennis Pedersen & A.R.D.I.
Forgotten (Original Mix)
06:07
10
Gouryella
Ligaya (Vinyl Extended Vocal Version)
07:05
PERFORMER "VA [Mixed by JuanP]" TITLE "Aerodynamix 006 @ FriskyRadio (Jun 2013)" FILE "21-va-aerodynamix_006_mixed_by_juan_prada_friskyradio-jun2013.mp3" WAVE TRACK 01 AUDIO PERFORMER "Terry Da Libra" TITLE "Don't Give Up" INDEX 01 00:00:00 TRACK 02 AUDIO PERFORMER "Audien" TITLE "Eleven Eleven" INDEX 01 06:09:00 TRACK 03 AUDIO PERFORMER "Ferry Tale & Satic Blue" TITLE "Trapeze (Arty Remix)" INDEX 01 11:37:50 TRACK 04 AUDIO PERFORMER "Estiva" TITLE "Smiley Smilesworth (Original Mix)" INDEX 01 17:39:10 TRACK 05 AUDIO PERFORMER "Above and Beyond feat. Zoe Johnston" TITLE "Alchemy (Myon and Shane 54 Redemption Mix)" INDEX 01 21:10:20 TRACK 06 AUDIO PERFORMER "Temple One" TITLE "World Beyond (Daniel Kandi & Philip Alpha Remix)" INDEX 01 28:26:50 TRACK 07 AUDIO PERFORMER "7 Skies & Kiholm" TITLE "Lost & Found (Dan Stone Remix)" INDEX 01 33:57:10 TRACK 08 AUDIO PERFORMER "Adam Nickey Presents Blue 8" TITLE "Eleventh Street (Suncatcher Remix)" INDEX 01 39:40:00 TRACK 09 AUDIO PERFORMER "Dennis Pedersen & A.R.D.I." TITLE "Forgotten (Original Mix)" INDEX 01 46:43:50 TRACK 10 AUDIO PERFORMER "Gouryella" TITLE "Ligaya (Vinyl Extended Vocal Version)" INDEX 01 52:50:50
01 Terry Da Libra - Don't Give Up 00:00 02 Audien - Eleven Eleven 06:09 03 Ferry Tale & Satic Blue - Trapeze (Arty Remix) 11:37 04 Estiva - Smiley Smilesworth (Original Mix) 17:39 05 Above and Beyond feat. Zoe Johnston - Alchemy (Myon and Shane 54 Redemption Mix) 21:10 06 Temple One - World Beyond (Daniel Kandi & Philip Alpha Remix) 28:26 07 7 Skies & Kiholm - Lost & Found (Dan Stone Remix) 33:57 08 Adam Nickey Presents Blue 8 - Eleventh Street (Suncatcher Remix) 39:40 09 Dennis Pedersen & A.R.D.I. - Forgotten (Original Mix) 46:43 10 Gouryella - Ligaya (Vinyl Extended Vocal Version) 52:50
Aerodynamix 006 @ Frisky Radio June 2013 mixed by JuanPdata/21-va-aerodynamix_006_mixed_by_juan_prada_friskyradio-jun2013-500px.pngdata/21-va-aerodynamix_006_mixed_by_juan_prada_friskyradio-jun2013.mp3data/21-va-aerodynamix_006_mixed_by_juan_prada_friskyradio-jun2013.ogg
{"Cuesheet":{"performer":"VA [Mixed by JuanP]","title":"Aerodynamix 006 @ FriskyRadio (Jun 2013)","file":"21-va-aerodynamix_006_mixed_by_juan_prada_friskyradio-jun2013.mp3"},"Track":[{"performer":"Terry Da Libra","title":"Don't Give Up","index":{"time":"00:00:00","frames":0,"seconds":0,"lenseconds":369,"lentime":"06:09"}},{"performer":"Audien","title":"Eleven Eleven","index":{"time":"06:09:00","frames":27675,"seconds":369,"lenseconds":328,"lentime":"05:28"}},{"performer":"Ferry Tale & Satic Blue","title":"Trapeze (Arty Remix)","index":{"time":"11:37:50","frames":52325,"seconds":697,"lenseconds":362,"lentime":"06:02"}},{"performer":"Estiva","title":"Smiley Smilesworth (Original Mix)","index":{"time":"17:39:10","frames":79435,"seconds":1059,"lenseconds":211,"lentime":"03:31"}},{"performer":"Above and Beyond feat. Zoe Johnston","title":"Alchemy (Myon and Shane 54 Redemption Mix)","index":{"time":"21:10:20","frames":95270,"seconds":1270,"lenseconds":436,"lentime":"07:16"}},{"performer":"Temple One","title":"World Beyond (Daniel Kandi & Philip Alpha Remix)","index":{"time":"28:26:50","frames":128000,"seconds":1706,"lenseconds":331,"lentime":"05:31"}},{"performer":"7 Skies & Kiholm","title":"Lost & Found (Dan Stone Remix)","index":{"time":"33:57:10","frames":152785,"seconds":2037,"lenseconds":343,"lentime":"05:43"}},{"performer":"Adam Nickey Presents Blue 8","title":"Eleventh Street (Suncatcher Remix)","index":{"time":"39:40:00","frames":178500,"seconds":2380,"lenseconds":423,"lentime":"07:03"}},{"performer":"Dennis Pedersen & A.R.D.I.","title":"Forgotten (Original Mix)","index":{"time":"46:43:50","frames":210275,"seconds":2803,"lenseconds":367,"lentime":"06:07"}},{"performer":"Gouryella","title":"Ligaya (Vinyl Extended Vocal Version)","index":{"time":"52:50:50","frames":237800,"seconds":3170,"lenseconds":425,"lentime":"07:05"}}]}