Carefully constructed music sets for your aural pleasure
Aerodynamix 004 @ Frisky Radio April 2013 mixed by JuanP
http://www.friskyradio.com/show/aerodynamix/04-18-2013/
Progresive House, Tech House, Nu Disco, Vocal Trance... Download cuesheet here: http://goo.gl/ZGU3Z
1:00:00
progressive trance, nu disco, progressive house, electronic, session, set
SHOW TRACKLIST
SHOW CUESHEET
SHOW TXT PL

LOAD IN AUDIO PLAYER

1
Bonar Bradberry
Loose Grip
05:35
2
OMD
The Future Will Be Silent (Juan Prada Extended Remix)
05:15
3
Sam Wallace
Echelon
07:56
4
Betoko
Sky in your Eyes (Original Mix)
05:17
5
The XX
Chained (Sasha Involv3r Remix)
07:18
6
Ri9or
When Frida Sings (Cid Inc Remix)
07:02
7
Ananda Project
Moment Before Dreaming (Sasha Involv3r Remix)
09:22
8
Dosem
Black Unicorn
05:59
9
Shiloh
Antigen (Chables 925 Edit)
06:16
PERFORMER "VA [Mixed by JuanP]" TITLE "Aerodynamix 004 @ FriskyRadio (Apr 2013)" FILE "19-va-aerodynamix_004_mixed_by_juan_prada_friskyradio-apr2013.mp3" WAVE TRACK 01 AUDIO PERFORMER "Bonar Bradberry" TITLE "Loose Grip" INDEX 01 00:00:00 TRACK 02 AUDIO PERFORMER "OMD" TITLE "The Future Will Be Silent (Juan Prada Extended Remix)" INDEX 01 05:35:50 TRACK 03 AUDIO PERFORMER "Sam Wallace" TITLE "Echelon" INDEX 01 10:50:44 TRACK 04 AUDIO PERFORMER "Betoko" TITLE "Sky in your Eyes (Original Mix)" INDEX 01 18:46:55 TRACK 05 AUDIO PERFORMER "The XX" TITLE "Chained (Sasha Involv3r Remix)" INDEX 01 24:03:80 TRACK 06 AUDIO PERFORMER "Ri9or" TITLE "When Frida Sings (Cid Inc Remix)" INDEX 01 31:21:82 TRACK 07 AUDIO PERFORMER "Ananda Project" TITLE "Moment Before Dreaming (Sasha Involv3r Remix)" INDEX 01 38:23:27 TRACK 08 AUDIO PERFORMER "Dosem" TITLE "Black Unicorn" INDEX 01 47:45:21 TRACK 09 AUDIO PERFORMER "Shiloh" TITLE "Antigen (Chables 925 Edit)" INDEX 01 53:44:24
01 Bonar Bradberry - Loose Grip 00:00 02 OMD - The Future Will Be Silent (Juan Prada Extended Remix) 05:35 03 Sam Wallace - Echelon 10:50 04 Betoko - Sky in your Eyes (Original Mix) 18:46 05 The XX - Chained (Sasha Involv3r Remix) 24:03 06 Ri9or - When Frida Sings (Cid Inc Remix) 31:21 07 Ananda Project - Moment Before Dreaming (Sasha Involv3r Remix) 38:23 08 Dosem - Black Unicorn 47:45 09 Shiloh - Antigen (Chables 925 Edit) 53:44
Aerodynamix 004 @ Frisky Radio April 2013 mixed by JuanPdata/19-va-aerodynamix_004_mixed_by_juan_prada_friskyradio-apr2013-500px.pngdata/19-va-aerodynamix_004_mixed_by_juan_prada_friskyradio-apr2013.mp3data/19-va-aerodynamix_004_mixed_by_juan_prada_friskyradio-apr2013.ogg
{"Cuesheet":{"performer":"VA [Mixed by JuanP]","title":"Aerodynamix 004 @ FriskyRadio (Apr 2013)","file":"19-va-aerodynamix_004_mixed_by_juan_prada_friskyradio-apr2013.mp3"},"Track":[{"performer":"Bonar Bradberry","title":"Loose Grip","index":{"time":"00:00:00","frames":0,"seconds":0,"lenseconds":335,"lentime":"05:35"}},{"performer":"OMD","title":"The Future Will Be Silent (Juan Prada Extended Remix)","index":{"time":"05:35:50","frames":25175,"seconds":335,"lenseconds":315,"lentime":"05:15"}},{"performer":"Sam Wallace","title":"Echelon","index":{"time":"10:50:44","frames":48794,"seconds":650,"lenseconds":476,"lentime":"07:56"}},{"performer":"Betoko","title":"Sky in your Eyes (Original Mix)","index":{"time":"18:46:55","frames":84505,"seconds":1126,"lenseconds":317,"lentime":"05:17"}},{"performer":"The XX","title":"Chained (Sasha Involv3r Remix)","index":{"time":"24:03:80","frames":108305,"seconds":1443,"lenseconds":438,"lentime":"07:18"}},{"performer":"Ri9or","title":"When Frida Sings (Cid Inc Remix)","index":{"time":"31:21:82","frames":141157,"seconds":1881,"lenseconds":422,"lentime":"07:02"}},{"performer":"Ananda Project","title":"Moment Before Dreaming (Sasha Involv3r Remix)","index":{"time":"38:23:27","frames":172752,"seconds":2303,"lenseconds":562,"lentime":"09:22"}},{"performer":"Dosem","title":"Black Unicorn","index":{"time":"47:45:21","frames":214896,"seconds":2865,"lenseconds":359,"lentime":"05:59"}},{"performer":"Shiloh","title":"Antigen (Chables 925 Edit)","index":{"time":"53:44:24","frames":241824,"seconds":3224,"lenseconds":376,"lentime":"06:16"}}]}