Carefully constructed music sets for your aural pleasure
Aerodynamix 003 @ Frisky Radio March 2013 mixed by JuanP
http://www.friskyradio.com/show/aerodynamix/03-21-2013/
Progresive House, Tech House, Nu Disco, Vocal Trance... Download cuesheet here: http://goo.gl/3VVCM
1:00:00
progressive trance, nu disco, progressive house, electronic, session, set
SHOW TRACKLIST
SHOW CUESHEET
SHOW TXT PL

LOAD IN AUDIO PLAYER

1
Satin Jackets
You Make Me Feel Good (Original Mix)
06:48
2
Marius Vareid
Vallefaret
04:00
3
Monte
True
05:20
4
Motorcitysoul
Playground (Mario Basanov Vocal Remake)
04:47
5
Rishi K
Birdsong (Original Mix)
04:23
6
Doorly Feat. Soraya Vivian
Rush (Original Mix)
03:34
7
Simon Doty
A Certain Kind of Something (Original Club Mix)
06:07
8
Jay Lumen
Raw Basses (Original Mix)
06:05
9
Attractive Deep Sound
Attention (Vocal Mix) [feat. Sergey Wednesday]
05:02
10
DelAir
Sense Of Spring (Denis Sender Remix)
04:55
11
19 Hz
Bakcheia
04:26
12
Schiller
Epic Shores (Mit Meredith Call) (SOUTHMIND REMIX) (JuanP Tweak)
04:33
PERFORMER "VA [Mixed by JuanP]" TITLE "Aerodynamix 003 @ FriskyRadio (Mar 2013)" FILE "18-va-aerodynamix_003_mixed_by_juan_prada_friskyradio-mar2013.mp3" WAVE TRACK 01 AUDIO PERFORMER "Satin Jackets" TITLE "You Make Me Feel Good (Original Mix)" INDEX 01 00:00:00 TRACK 02 AUDIO PERFORMER "Marius Vareid" TITLE "Vallefaret" INDEX 01 06:48:00 TRACK 03 AUDIO PERFORMER "Monte" TITLE "True" INDEX 01 10:48:00 TRACK 04 AUDIO PERFORMER "Motorcitysoul" TITLE "Playground (Mario Basanov Vocal Remake)" INDEX 01 16:08:00 TRACK 05 AUDIO PERFORMER "Rishi K" TITLE "Birdsong (Original Mix)" INDEX 01 20:55:00 TRACK 06 AUDIO PERFORMER "Doorly Feat. Soraya Vivian" TITLE "Rush (Original Mix)" INDEX 01 25:18:00 TRACK 07 AUDIO PERFORMER "Simon Doty" TITLE "A Certain Kind of Something (Original Club Mix)" INDEX 01 28:52:00 TRACK 08 AUDIO PERFORMER "Jay Lumen" TITLE "Raw Basses (Original Mix)" INDEX 01 34:59:00 TRACK 09 AUDIO PERFORMER "Attractive Deep Sound" TITLE "Attention (Vocal Mix) [feat. Sergey Wednesday]" INDEX 01 41:04:00 TRACK 10 AUDIO PERFORMER "DelAir" TITLE "Sense Of Spring (Denis Sender Remix)" INDEX 01 46:06:00 TRACK 11 AUDIO PERFORMER "19 Hz" TITLE "Bakcheia" INDEX 01 51:01:00 TRACK 12 AUDIO PERFORMER "Schiller" TITLE "Epic Shores (Mit Meredith Call) (SOUTHMIND REMIX) (JuanP Tweak)" INDEX 01 55:27:00
01 Satin Jackets - You Make Me Feel Good (Original Mix) 00:00 02 Marius Vareid - Vallefaret 06:48 03 Monte - True 10:48 04 Motorcitysoul - Playground (Mario Basanov Vocal Remake) 16:08 05 Rishi K - Birdsong (Original Mix) 20:55 06 Doorly Feat. Soraya Vivian - Rush (Original Mix) 25:18 07 Simon Doty - A Certain Kind of Something (Original Club Mix) 28:52 08 Jay Lumen - Raw Basses (Original Mix) 34:59 09 Attractive Deep Sound - Attention (Vocal Mix) [feat. Sergey Wednesday] 41:04 10 DelAir - Sense Of Spring (Denis Sender Remix) 46:06 11 19 Hz - Bakcheia 51:01 12 Schiller - Epic Shores (Mit Meredith Call) (SOUTHMIND REMIX) (JuanP Tweak) 55:27
Aerodynamix 003 @ Frisky Radio March 2013 mixed by JuanPdata/18-va-aerodynamix_003_mixed_by_juan_prada_friskyradio-mar2013-500px.pngdata/18-va-aerodynamix_003_mixed_by_juan_prada_friskyradio-mar2013.mp3data/18-va-aerodynamix_003_mixed_by_juan_prada_friskyradio-mar2013.ogg
{"Cuesheet":{"performer":"VA [Mixed by JuanP]","title":"Aerodynamix 003 @ FriskyRadio (Mar 2013)","file":"18-va-aerodynamix_003_mixed_by_juan_prada_friskyradio-mar2013.mp3"},"Track":[{"performer":"Satin Jackets","title":"You Make Me Feel Good (Original Mix)","index":{"time":"00:00:00","frames":0,"seconds":0,"lenseconds":408,"lentime":"06:48"}},{"performer":"Marius Vareid","title":"Vallefaret","index":{"time":"06:48:00","frames":30600,"seconds":408,"lenseconds":240,"lentime":"04:00"}},{"performer":"Monte","title":"True","index":{"time":"10:48:00","frames":48600,"seconds":648,"lenseconds":320,"lentime":"05:20"}},{"performer":"Motorcitysoul","title":"Playground (Mario Basanov Vocal Remake)","index":{"time":"16:08:00","frames":72600,"seconds":968,"lenseconds":287,"lentime":"04:47"}},{"performer":"Rishi K","title":"Birdsong (Original Mix)","index":{"time":"20:55:00","frames":94125,"seconds":1255,"lenseconds":263,"lentime":"04:23"}},{"performer":"Doorly Feat. Soraya Vivian","title":"Rush (Original Mix)","index":{"time":"25:18:00","frames":113850,"seconds":1518,"lenseconds":214,"lentime":"03:34"}},{"performer":"Simon Doty","title":"A Certain Kind of Something (Original Club Mix)","index":{"time":"28:52:00","frames":129900,"seconds":1732,"lenseconds":367,"lentime":"06:07"}},{"performer":"Jay Lumen","title":"Raw Basses (Original Mix)","index":{"time":"34:59:00","frames":157425,"seconds":2099,"lenseconds":365,"lentime":"06:05"}},{"performer":"Attractive Deep Sound","title":"Attention (Vocal Mix) [feat. Sergey Wednesday]","index":{"time":"41:04:00","frames":184800,"seconds":2464,"lenseconds":302,"lentime":"05:02"}},{"performer":"DelAir","title":"Sense Of Spring (Denis Sender Remix)","index":{"time":"46:06:00","frames":207450,"seconds":2766,"lenseconds":295,"lentime":"04:55"}},{"performer":"19 Hz","title":"Bakcheia","index":{"time":"51:01:00","frames":229575,"seconds":3061,"lenseconds":266,"lentime":"04:26"}},{"performer":"Schiller","title":"Epic Shores (Mit Meredith Call) (SOUTHMIND REMIX) (JuanP Tweak)","index":{"time":"55:27:00","frames":249525,"seconds":3327,"lenseconds":273,"lentime":"04:33"}}]}