Carefully constructed music sets for your aural pleasure
Aerodynamix 001 @ Frisky Radio January 2013 mixed by JuanP
http://www.friskyradio.com/show/aerodynamix/01-17-2013/
Progresive House, Tech House, Vocal Trance... Download cuesheet here: http://goo.gl/xDYfq
1:00:00
progressive trance, trance, progressive house, electronic, session, set
SHOW TRACKLIST
SHOW CUESHEET
SHOW TXT PL

LOAD IN AUDIO PLAYER

1
HVOB
Dogs (Oliver Koletzki Remix)
05:13
2
Moulinex
Maniac
03:06
3
Finnebassen
When Doves Cry (Finnebassen Remix)
04:50
4
Dosem
Beach Kisses (Rework)
05:11
5
Gill Norris
Forme (Guy J PM Mix)
04:17
6
EDX
Touched (Original Club Mix)
05:22
7
Dan and Sam
Breaking the Illusion (Original Mix)
07:08
8
Sunny Lax
Naida (Original Mix)
04:22
9
Stoneface and Terminal
Green Velvet (Club Mix)
06:05
10
Alex M.O.R.P.H.
Eternal Flame (Alex M.O.R.P.H. Reach out for the Stars Mix)
06:19
11
Pet Shop Boys
Leaving (Happysad Remix)
04:15
12
Hybrid
True to Form (Acoustic)
03:52
PERFORMER "VA [Mixed by JuanP]" TITLE "Aerodynamix 001 @ FriskyRadio (Jan 2013)" FILE "16-va-aerodynamix_001_mixed_by_juan_prada_friskyradio-jan2013.mp3" WAVE TRACK 01 AUDIO PERFORMER "HVOB" TITLE "Dogs (Oliver Koletzki Remix)" INDEX 01 00:00:00 TRACK 02 AUDIO PERFORMER "Moulinex" TITLE "Maniac" INDEX 01 05:13:00 TRACK 03 AUDIO PERFORMER "Finnebassen" TITLE "When Doves Cry (Finnebassen Remix)" INDEX 01 08:19:00 TRACK 04 AUDIO PERFORMER "Dosem" TITLE "Beach Kisses (Rework)" INDEX 01 13:09:00 TRACK 05 AUDIO PERFORMER "Gill Norris" TITLE "Forme (Guy J PM Mix)" INDEX 01 18:20:00 TRACK 06 AUDIO PERFORMER "EDX" TITLE "Touched (Original Club Mix)" INDEX 01 22:37:00 TRACK 07 AUDIO PERFORMER "Dan and Sam" TITLE "Breaking the Illusion (Original Mix)" INDEX 01 27:59:00 TRACK 08 AUDIO PERFORMER "Sunny Lax" TITLE "Naida (Original Mix)" INDEX 01 35:07:00 TRACK 09 AUDIO PERFORMER "Stoneface and Terminal" TITLE "Green Velvet (Club Mix)" INDEX 01 39:29:00 TRACK 10 AUDIO PERFORMER "Alex M.O.R.P.H." TITLE "Eternal Flame (Alex M.O.R.P.H. Reach out for the Stars Mix)" INDEX 01 45:34:00 TRACK 11 AUDIO PERFORMER "Pet Shop Boys" TITLE "Leaving (Happysad Remix)" INDEX 01 51:53:00 TRACK 12 AUDIO PERFORMER "Hybrid" TITLE "True to Form (Acoustic)" INDEX 01 56:08:00
01 HVOB - Dogs (Oliver Koletzki Remix) 00:00 02 Moulinex - Maniac 05:13 03 Finnebassen - When Doves Cry (Finnebassen Remix) 08:19 04 Dosem - Beach Kisses (Rework) 13:09 05 Gill Norris - Forme (Guy J PM Mix) 18:20 06 EDX - Touched (Original Club Mix) 22:37 07 Dan and Sam - Breaking the Illusion (Original Mix) 27:59 08 Sunny Lax - Naida (Original Mix) 35:07 09 Stoneface and Terminal - Green Velvet (Club Mix) 39:29 10 Alex M.O.R.P.H. - Eternal Flame (Alex M.O.R.P.H. Reach out for the Stars Mix) 45:34 11 Pet Shop Boys - Leaving (Happysad Remix) 51:53 12 Hybrid - True to Form (Acoustic) 56:08
Aerodynamix 001 @ Frisky Radio January 2013 mixed by JuanPdata/16-va-aerodynamix_001_mixed_by_juan_prada_friskyradio-jan2013.pngdata/16-va-aerodynamix_001_mixed_by_juan_prada_friskyradio-jan2013.mp3data/16-va-aerodynamix_001_mixed_by_juan_prada_friskyradio-jan2013.ogg
{"Cuesheet":{"performer":"VA [Mixed by JuanP]","title":"Aerodynamix 001 @ FriskyRadio (Jan 2013)","file":"16-va-aerodynamix_001_mixed_by_juan_prada_friskyradio-jan2013.mp3"},"Track":[{"performer":"HVOB","title":"Dogs (Oliver Koletzki Remix)","index":{"time":"00:00:00","frames":0,"seconds":0,"lenseconds":313,"lentime":"05:13"}},{"performer":"Moulinex","title":"Maniac","index":{"time":"05:13:00","frames":23475,"seconds":313,"lenseconds":186,"lentime":"03:06"}},{"performer":"Finnebassen","title":"When Doves Cry (Finnebassen Remix)","index":{"time":"08:19:00","frames":37425,"seconds":499,"lenseconds":290,"lentime":"04:50"}},{"performer":"Dosem","title":"Beach Kisses (Rework)","index":{"time":"13:09:00","frames":59175,"seconds":789,"lenseconds":311,"lentime":"05:11"}},{"performer":"Gill Norris","title":"Forme (Guy J PM Mix)","index":{"time":"18:20:00","frames":82500,"seconds":1100,"lenseconds":257,"lentime":"04:17"}},{"performer":"EDX","title":"Touched (Original Club Mix)","index":{"time":"22:37:00","frames":101775,"seconds":1357,"lenseconds":322,"lentime":"05:22"}},{"performer":"Dan and Sam","title":"Breaking the Illusion (Original Mix)","index":{"time":"27:59:00","frames":125925,"seconds":1679,"lenseconds":428,"lentime":"07:08"}},{"performer":"Sunny Lax","title":"Naida (Original Mix)","index":{"time":"35:07:00","frames":158025,"seconds":2107,"lenseconds":262,"lentime":"04:22"}},{"performer":"Stoneface and Terminal","title":"Green Velvet (Club Mix)","index":{"time":"39:29:00","frames":177675,"seconds":2369,"lenseconds":365,"lentime":"06:05"}},{"performer":"Alex M.O.R.P.H.","title":"Eternal Flame (Alex M.O.R.P.H. Reach out for the Stars Mix)","index":{"time":"45:34:00","frames":205050,"seconds":2734,"lenseconds":379,"lentime":"06:19"}},{"performer":"Pet Shop Boys","title":"Leaving (Happysad Remix)","index":{"time":"51:53:00","frames":233475,"seconds":3113,"lenseconds":255,"lentime":"04:15"}},{"performer":"Hybrid","title":"True to Form (Acoustic)","index":{"time":"56:08:00","frames":252600,"seconds":3368,"lenseconds":232,"lentime":"03:52"}}]}