Carefully constructed music sets for your aural pleasure
June 2012: JuanP Frisky Artist Of The Week
From Progresive House to Progressive Trance and some oldies. Download cuesheet here: http://goo.gl/5pzEy
2:00:06
progressive trance, trance, progressive house, electronic, session, set
SHOW TRACKLIST
SHOW CUESHEET
SHOW TXT PL

LOAD IN AUDIO PLAYER

1
Oliver Schories
Just 5 Stems
03:48
2
Vildtand 25
Timer
05:20
3
Guy J
Pathos
06:36
4
Ian O'Donovan
Forever Untold
06:37
5
Eelke Kleijn
Levensgenieter (Dosem Remix)
04:34
6
Dosem
How do you do it
05:05
7
Kylie Minogue
Better Than Today (Monarchy Kylie Through The Wormhole Remix)
05:20
8
Damabiah
Irminsul le pilier du monde (Andrew Bayer Remix)
06:51
9
Vector 13
Isis (Original Mix)
07:06
10
Kris Menace feat. Emil
Walkin on the Moon (Henrik B Remix)
04:45
11
Dave Horne
11 Hours (Original Mix)
06:14
12
Sophie Sugar
Skyline (DNS Project Remix)
05:57
13
Above And Beyond
On my way to Heaven
06:05
14
The Blizzard
Piercing The Fog (Original Mix)
06:49
15
The Thrillseekers feat Fisher
Angel (Club Mix)
07:04
16
Paki & Jaro feat Casey Barnes
Because Of You (Juan Prada Shameless Mix)
03:47
17
Playgroup
Behind The Wheel (DJ Kicks Wlectroclash Vocal Mix / Juan Prada Vergonzosh Tweak Mix)
03:58
18
Reflekt
Need To Feel Loved (Original Mix)
06:42
19
C-Systems & Bushi feat. Hanna Finsen
Dreams Will Never End (Orbion Remix)
05:57
20
Smart Apes featuring Elsa Hill
U-Turn
06:04
21
Nistirenko
Found You (Andrey Subbotin Remix)
05:27
PERFORMER "VA [Mixed by JuanP]" TITLE "JuanP Frisy Artist Of The Week" FILE "11-va-juanp_frisky_artist_of_the_week-(jun_2012).mp3" WAVE TRACK 01 AUDIO PERFORMER "Oliver Schories" TITLE "Just 5 Stems" INDEX 01 00:00:00 TRACK 02 AUDIO PERFORMER "Vildtand 25" TITLE "Timer" INDEX 01 03:48:50 TRACK 03 AUDIO PERFORMER "Guy J" TITLE "Pathos" INDEX 01 09:08:00 TRACK 04 AUDIO PERFORMER "Ian O'Donovan" TITLE "Forever Untold" INDEX 01 15:44:50 TRACK 05 AUDIO PERFORMER "Eelke Kleijn" TITLE "Levensgenieter (Dosem Remix)" INDEX 01 22:21:50 TRACK 06 AUDIO PERFORMER "Dosem" TITLE "How do you do it" INDEX 01 26:55:00 TRACK 07 AUDIO PERFORMER "Kylie Minogue" TITLE "Better Than Today (Monarchy Kylie Through The Wormhole Remix)" INDEX 01 32:00:00 TRACK 08 AUDIO PERFORMER "Damabiah" TITLE "Irminsul le pilier du monde (Andrew Bayer Remix)" INDEX 01 37:20:00 TRACK 09 AUDIO PERFORMER "Vector 13" TITLE "Isis (Original Mix)" INDEX 01 44:11:00 TRACK 10 AUDIO PERFORMER "Kris Menace feat. Emil" TITLE "Walkin on the Moon (Henrik B Remix)" INDEX 01 51:17:50 TRACK 11 AUDIO PERFORMER "Dave Horne" TITLE "11 Hours (Original Mix)" INDEX 01 56:02:50 TRACK 12 AUDIO PERFORMER "Sophie Sugar" TITLE "Skyline (DNS Project Remix)" INDEX 01 62:16:00 TRACK 13 AUDIO PERFORMER "Above And Beyond" TITLE "On my way to Heaven" INDEX 01 68:13:50 TRACK 14 AUDIO PERFORMER "The Blizzard" TITLE "Piercing The Fog (Original Mix)" INDEX 01 74:18:00 TRACK 15 AUDIO PERFORMER "The Thrillseekers feat Fisher" TITLE "Angel (Club Mix)" INDEX 01 81:07:00 TRACK 16 AUDIO PERFORMER "Paki & Jaro feat Casey Barnes" TITLE "Because Of You (Juan Prada Shameless Mix)" INDEX 01 88:11:40 TRACK 17 AUDIO PERFORMER "Playgroup" TITLE "Behind The Wheel (DJ Kicks Wlectroclash Vocal Mix / Juan Prada Vergonzosh Tweak Mix)" INDEX 01 91:58:10 TRACK 18 AUDIO PERFORMER "Reflekt" TITLE "Need To Feel Loved (Original Mix)" INDEX 01 95:56:10 TRACK 19 AUDIO PERFORMER "C-Systems & Bushi feat. Hanna Finsen" TITLE "Dreams Will Never End (Orbion Remix)" INDEX 01 102:38:50 TRACK 20 AUDIO PERFORMER "Smart Apes featuring Elsa Hill" TITLE "U-Turn" INDEX 01 108:35:10 TRACK 21 AUDIO PERFORMER "Nistirenko" TITLE "Found You (Andrey Subbotin Remix)" INDEX 01 114:39:10
01 Oliver Schories - Just 5 Stems 00:00 02 Vildtand 25 - Timer 03:48 03 Guy J - Pathos 09:08 04 Ian O'Donovan - Forever Untold 15:44 05 Eelke Kleijn - Levensgenieter (Dosem Remix) 22:21 06 Dosem - How do you do it 26:55 07 Kylie Minogue - Better Than Today (Monarchy Kylie Through The Wormhole Remix) 32:00 08 Damabiah - Irminsul le pilier du monde (Andrew Bayer Remix) 37:20 09 Vector 13 - Isis (Original Mix) 44:11 10 Kris Menace feat. Emil - Walkin on the Moon (Henrik B Remix) 51:17 11 Dave Horne - 11 Hours (Original Mix) 56:02 12 Sophie Sugar - Skyline (DNS Project Remix) 62:16 13 Above And Beyond - On my way to Heaven 68:13 14 The Blizzard - Piercing The Fog (Original Mix) 74:18 15 The Thrillseekers feat Fisher - Angel (Club Mix) 81:07 16 Paki & Jaro feat Casey Barnes - Because Of You (Juan Prada Shameless Mix) 88:11 17 Playgroup - Behind The Wheel (DJ Kicks Wlectroclash Vocal Mix / Juan Prada Vergonzosh Tweak Mix) 91:58 18 Reflekt - Need To Feel Loved (Original Mix) 95:56 19 C-Systems & Bushi feat. Hanna Finsen - Dreams Will Never End (Orbion Remix) 102:3 20 Smart Apes featuring Elsa Hill - U-Turn 108:3 21 Nistirenko - Found You (Andrey Subbotin Remix) 114:3
June 2012: JuanP Frisky Artist Of The Weekdata/11-va-juanp_frisky_artist_of_the_week-(jun_2012).pngdata/11-va-juanp_frisky_artist_of_the_week-(jun_2012).mp3data/11-va-juanp_frisky_artist_of_the_week-(jun_2012).ogg
{"Cuesheet":{"performer":"VA [Mixed by JuanP]","title":"JuanP Frisy Artist Of The Week","file":"11-va-juanp_frisky_artist_of_the_week-(jun_2012).mp3"},"Track":[{"performer":"Oliver Schories","title":"Just 5 Stems","index":{"time":"00:00:00","frames":0,"seconds":0,"lenseconds":228,"lentime":"03:48"}},{"performer":"Vildtand 25","title":"Timer","index":{"time":"03:48:50","frames":17150,"seconds":228,"lenseconds":320,"lentime":"05:20"}},{"performer":"Guy J","title":"Pathos","index":{"time":"09:08:00","frames":41100,"seconds":548,"lenseconds":396,"lentime":"06:36"}},{"performer":"Ian O'Donovan","title":"Forever Untold","index":{"time":"15:44:50","frames":70850,"seconds":944,"lenseconds":397,"lentime":"06:37"}},{"performer":"Eelke Kleijn","title":"Levensgenieter (Dosem Remix)","index":{"time":"22:21:50","frames":100625,"seconds":1341,"lenseconds":274,"lentime":"04:34"}},{"performer":"Dosem","title":"How do you do it","index":{"time":"26:55:00","frames":121125,"seconds":1615,"lenseconds":305,"lentime":"05:05"}},{"performer":"Kylie Minogue","title":"Better Than Today (Monarchy Kylie Through The Wormhole Remix)","index":{"time":"32:00:00","frames":144000,"seconds":1920,"lenseconds":320,"lentime":"05:20"}},{"performer":"Damabiah","title":"Irminsul le pilier du monde (Andrew Bayer Remix)","index":{"time":"37:20:00","frames":168000,"seconds":2240,"lenseconds":411,"lentime":"06:51"}},{"performer":"Vector 13","title":"Isis (Original Mix)","index":{"time":"44:11:00","frames":198825,"seconds":2651,"lenseconds":426,"lentime":"07:06"}},{"performer":"Kris Menace feat. Emil","title":"Walkin on the Moon (Henrik B Remix)","index":{"time":"51:17:50","frames":230825,"seconds":3077,"lenseconds":285,"lentime":"04:45"}},{"performer":"Dave Horne","title":"11 Hours (Original Mix)","index":{"time":"56:02:50","frames":252200,"seconds":3362,"lenseconds":374,"lentime":"06:14"}},{"performer":"Sophie Sugar","title":"Skyline (DNS Project Remix)","index":{"time":"62:16:00","frames":280200,"seconds":3736,"lenseconds":357,"lentime":"05:57"}},{"performer":"Above And Beyond","title":"On my way to Heaven","index":{"time":"68:13:50","frames":307025,"seconds":4093,"lenseconds":365,"lentime":"06:05"}},{"performer":"The Blizzard","title":"Piercing The Fog (Original Mix)","index":{"time":"74:18:00","frames":334350,"seconds":4458,"lenseconds":409,"lentime":"06:49"}},{"performer":"The Thrillseekers feat Fisher","title":"Angel (Club Mix)","index":{"time":"81:07:00","frames":365025,"seconds":4867,"lenseconds":424,"lentime":"07:04"}},{"performer":"Paki & Jaro feat Casey Barnes","title":"Because Of You (Juan Prada Shameless Mix)","index":{"time":"88:11:40","frames":396865,"seconds":5291,"lenseconds":227,"lentime":"03:47"}},{"performer":"Playgroup","title":"Behind The Wheel (DJ Kicks Wlectroclash Vocal Mix \/ Juan Prada Vergonzosh Tweak Mix)","index":{"time":"91:58:10","frames":413860,"seconds":5518,"lenseconds":238,"lentime":"03:58"}},{"performer":"Reflekt","title":"Need To Feel Loved (Original Mix)","index":{"time":"95:56:10","frames":431710,"seconds":5756,"lenseconds":402,"lentime":"06:42"}},{"performer":"C-Systems & Bushi feat. Hanna Finsen","title":"Dreams Will Never End (Orbion Remix)","index":{"time":"102:38:50","frames":461900,"seconds":6158,"lenseconds":357,"lentime":"05:57"}},{"performer":"Smart Apes featuring Elsa Hill","title":"U-Turn","index":{"time":"108:35:10","frames":488635,"seconds":6515,"lenseconds":364,"lentime":"06:04"}},{"performer":"Nistirenko","title":"Found You (Andrey Subbotin Remix)","index":{"time":"114:39:10","frames":515935,"seconds":6879,"lenseconds":327,"lentime":"05:27"}}]}