Carefully constructed music sets for your aural pleasure
April 2012: Dispersed Mixed by JuanP
From Progresive House to Progressive Trance. Download cuesheet here: http://goo.gl/Zi5oy
0:59:57
progressive trance, trance, progressive house, electronic, session, set
SHOW TRACKLIST
SHOW CUESHEET
SHOW TXT PL

LOAD IN AUDIO PLAYER

1
Baxendale
I Built This City (Michael Mayer Mix)
04:34
2
BBE
7 Days & One Week (Audio Reboot Remix)
07:37
3
Guy J
Sahara
05:20
4
Juan Deminicis & Martin Etchegaray & Ewan_Rill
North Wind (Juan Deminicis & Martin Etchegaray Remix)
05:35
5
Makau
Desert Wind (Original Mix)
06:01
6
Zack Roth
Outland (Original Mix)
04:07
7
Faruk Sabanci
As Faces Fade (Alexander Popov Remix)
05:50
8
Solarstone
Ultraviolet (Tucandeo Dream Mix)
06:10
9
The Last Time (Matt Old 2012 Remix)
The Thrillseekers ft. Fisher
06:25
10
DJ Tatana
Spring Breeze
04:17
11
When The Sun (Eximinds Remix Edit)
Alexander Popov
04:01
PERFORMER "VA [Mixed by JuanP]" TITLE "Dispersed" FILE "10-va-dispersed_mixed_by_juan_prada-(apr_2012).mp3" WAVE TRACK 01 AUDIO PERFORMER "Baxendale" TITLE "I Built This City (Michael Mayer Mix)" INDEX 01 00:00:00 TRACK 02 AUDIO PERFORMER "BBE" TITLE "7 Days & One Week (Audio Reboot Remix)" INDEX 01 04:34:20 TRACK 03 AUDIO PERFORMER "Guy J" TITLE "Sahara" INDEX 01 12:11:30 TRACK 04 AUDIO PERFORMER "Juan Deminicis & Martin Etchegaray & Ewan_Rill" TITLE "North Wind (Juan Deminicis & Martin Etchegaray Remix)" INDEX 01 17:31:20 TRACK 05 AUDIO PERFORMER "Makau" TITLE "Desert Wind (Original Mix)" INDEX 01 23:06:50 TRACK 06 AUDIO PERFORMER "Zack Roth" TITLE "Outland (Original Mix)" INDEX 01 29:07:30 TRACK 07 AUDIO PERFORMER "Faruk Sabanci" TITLE "As Faces Fade (Alexander Popov Remix)" INDEX 01 33:14:70 TRACK 08 AUDIO PERFORMER "Solarstone" TITLE "Ultraviolet (Tucandeo Dream Mix)" INDEX 01 39:04:10 TRACK 09 AUDIO TITLE "The Thrillseekers ft. Fisher" PERFORMER "The Last Time (Matt Old 2012 Remix)" INDEX 01 45:14:50 TRACK 10 AUDIO PERFORMER "DJ Tatana" TITLE "Spring Breeze" INDEX 01 51:39:50 TRACK 11 AUDIO TITLE "Alexander Popov" PERFORMER "When The Sun (Eximinds Remix Edit)" INDEX 01 55:56:10
01 Baxendale - I Built This City (Michael Mayer Mix) 00:00 02 BBE - 7 Days & One Week (Audio Reboot Remix) 04:34 03 Guy J - Sahara 12:11 04 Juan Deminicis & Martin Etchegaray & Ewan_Rill - North Wind (Juan Deminicis & Martin Etchegaray Remix) 17:31 05 Makau - Desert Wind (Original Mix) 23:06 06 Zack Roth - Outland (Original Mix) 29:07 07 Faruk Sabanci - As Faces Fade (Alexander Popov Remix) 33:14 08 Solarstone - Ultraviolet (Tucandeo Dream Mix) 39:04 09 The Last Time (Matt Old 2012 Remix) - The Thrillseekers ft. Fisher 45:14 10 DJ Tatana - Spring Breeze 51:39 11 When The Sun (Eximinds Remix Edit) - Alexander Popov 55:56
April 2012: Dispersed Mixed by JuanPdata/10-va-dispersed_mixed_by_juan_prada-(apr_2012).pngdata/10-va-dispersed_mixed_by_juan_prada-(apr_2012).mp3data/10-va-dispersed_mixed_by_juan_prada-(apr_2012).ogg
{"Cuesheet":{"performer":"VA [Mixed by JuanP]","title":"Dispersed","file":"10-va-dispersed_mixed_by_juan_prada-(apr_2012).mp3"},"Track":[{"performer":"Baxendale","title":"I Built This City (Michael Mayer Mix)","index":{"time":"00:00:00","frames":0,"seconds":0,"lenseconds":274,"lentime":"04:34"}},{"performer":"BBE","title":"7 Days & One Week (Audio Reboot Remix)","index":{"time":"04:34:20","frames":20570,"seconds":274,"lenseconds":457,"lentime":"07:37"}},{"performer":"Guy J","title":"Sahara","index":{"time":"12:11:30","frames":54855,"seconds":731,"lenseconds":320,"lentime":"05:20"}},{"performer":"Juan Deminicis & Martin Etchegaray & Ewan_Rill","title":"North Wind (Juan Deminicis & Martin Etchegaray Remix)","index":{"time":"17:31:20","frames":78845,"seconds":1051,"lenseconds":335,"lentime":"05:35"}},{"performer":"Makau","title":"Desert Wind (Original Mix)","index":{"time":"23:06:50","frames":104000,"seconds":1386,"lenseconds":361,"lentime":"06:01"}},{"performer":"Zack Roth","title":"Outland (Original Mix)","index":{"time":"29:07:30","frames":131055,"seconds":1747,"lenseconds":247,"lentime":"04:07"}},{"performer":"Faruk Sabanci","title":"As Faces Fade (Alexander Popov Remix)","index":{"time":"33:14:70","frames":149620,"seconds":1994,"lenseconds":350,"lentime":"05:50"}},{"performer":"Solarstone","title":"Ultraviolet (Tucandeo Dream Mix)","index":{"time":"39:04:10","frames":175810,"seconds":2344,"lenseconds":370,"lentime":"06:10"}},{"title":"The Thrillseekers ft. Fisher","performer":"The Last Time (Matt Old 2012 Remix)","index":{"time":"45:14:50","frames":203600,"seconds":2714,"lenseconds":385,"lentime":"06:25"}},{"performer":"DJ Tatana","title":"Spring Breeze","index":{"time":"51:39:50","frames":232475,"seconds":3099,"lenseconds":257,"lentime":"04:17"}},{"title":"Alexander Popov","performer":"When The Sun (Eximinds Remix Edit)","index":{"time":"55:56:10","frames":251710,"seconds":3356,"lenseconds":241,"lentime":"04:01"}}]}