Carefully constructed music sets for your aural pleasure
Aerodynamix 076 @ Frisky Radio July 2020 mixed by JuanP
Progressive House / Melodic Techno
1:00:00
progressive house, melodic techno
SHOW TRACKLIST
SHOW CUESHEET
SHOW TXT PL

LOAD IN AUDIO PLAYER

1
Rodriguez Jr:
Polaroid
06:19
2
Royksopp
Church (Lost Tapes)
06:43
3
Yotto
Daydreaming (Extended Mix)
05:09
4
Colyn
Concepts Of Love
05:56
5
Monkey Safari
Safe (Original Mix)
07:29
6
Henry Saiz
Cry If You Want To (Einmusik Remix)
06:12
7
Spencer Brown & Marsh
Pursuance (Extended Mix)
05:41
8
Tinlicker
Sleepwalker (Extended Mix)
04:38
9
Logiztik Sounds & David Montenegro
Halo Moon (Khen Remix)
05:43
10
Moonwalk
Elessar
06:10
PERFORMER "VA [Mixed by JuanP]" TITLE "Aerodynamix 076 (July 2020) Frisky Radio" FILE "93-va-aerodynamix_076_mixed_by_juan_prada_friskyradio-jul2020.mp3" WAVE TRACK 01 AUDIO PERFORMER "Rodriguez Jr:" TITLE "Polaroid" INDEX 01 00:00:00 TRACK 02 AUDIO PERFORMER "Royksopp" TITLE "Church (Lost Tapes)" INDEX 01 06:19:00 TRACK 03 AUDIO PERFORMER "Yotto" TITLE "Daydreaming (Extended Mix)" INDEX 01 13:02:00 TRACK 04 AUDIO PERFORMER "Colyn" TITLE "Concepts Of Love" INDEX 01 18:11:00 TRACK 05 AUDIO PERFORMER "Monkey Safari" TITLE "Safe (Original Mix)" INDEX 01 24:07:00 TRACK 06 AUDIO PERFORMER "Henry Saiz" TITLE "Cry If You Want To (Einmusik Remix)" INDEX 01 31:36:00 TRACK 07 AUDIO PERFORMER "Spencer Brown & Marsh" TITLE "Pursuance (Extended Mix)" INDEX 01 37:48:00 TRACK 08 AUDIO PERFORMER "Tinlicker" TITLE "Sleepwalker (Extended Mix)" INDEX 01 43:29:00 TRACK 09 AUDIO PERFORMER "Logiztik Sounds & David Montenegro" TITLE "Halo Moon (Khen Remix)" INDEX 01 48:07:00 TRACK 10 AUDIO PERFORMER "Moonwalk" TITLE "Elessar" INDEX 01 53:50:00
01 Rodriguez Jr: - Polaroid 00:00 02 Royksopp - Church (Lost Tapes) 06:19 03 Yotto - Daydreaming (Extended Mix) 13:02 04 Colyn - Concepts Of Love 18:11 05 Monkey Safari - Safe (Original Mix) 24:07 06 Henry Saiz - Cry If You Want To (Einmusik Remix) 31:36 07 Spencer Brown & Marsh - Pursuance (Extended Mix) 37:48 08 Tinlicker - Sleepwalker (Extended Mix) 43:29 09 Logiztik Sounds & David Montenegro - Halo Moon (Khen Remix) 48:07 10 Moonwalk - Elessar 53:50
Aerodynamix 076 @ Frisky Radio July 2020 mixed by JuanPdata/93-va-aerodynamix_076_mixed_by_juan_prada_friskyradio-jul2020-500px.pngdata/93-va-aerodynamix_076_mixed_by_juan_prada_friskyradio-jul2020.mp3data/93-va-aerodynamix_076_mixed_by_juan_prada_friskyradio-jul2020.ogg
{"Cuesheet":{"performer":"VA [Mixed by JuanP]","title":"Aerodynamix 076 (July 2020) Frisky Radio","file":"93-va-aerodynamix_076_mixed_by_juan_prada_friskyradio-jul2020.mp3"},"Track":[{"performer":"Rodriguez Jr:","title":"Polaroid","index":{"time":"00:00:00","frames":0,"seconds":0,"lenseconds":379,"lentime":"06:19"}},{"performer":"Royksopp","title":"Church (Lost Tapes)","index":{"time":"06:19:00","frames":28425,"seconds":379,"lenseconds":403,"lentime":"06:43"}},{"performer":"Yotto","title":"Daydreaming (Extended Mix)","index":{"time":"13:02:00","frames":58650,"seconds":782,"lenseconds":309,"lentime":"05:09"}},{"performer":"Colyn","title":"Concepts Of Love","index":{"time":"18:11:00","frames":81825,"seconds":1091,"lenseconds":356,"lentime":"05:56"}},{"performer":"Monkey Safari","title":"Safe (Original Mix)","index":{"time":"24:07:00","frames":108525,"seconds":1447,"lenseconds":449,"lentime":"07:29"}},{"performer":"Henry Saiz","title":"Cry If You Want To (Einmusik Remix)","index":{"time":"31:36:00","frames":142200,"seconds":1896,"lenseconds":372,"lentime":"06:12"}},{"performer":"Spencer Brown & Marsh","title":"Pursuance (Extended Mix)","index":{"time":"37:48:00","frames":170100,"seconds":2268,"lenseconds":341,"lentime":"05:41"}},{"performer":"Tinlicker","title":"Sleepwalker (Extended Mix)","index":{"time":"43:29:00","frames":195675,"seconds":2609,"lenseconds":278,"lentime":"04:38"}},{"performer":"Logiztik Sounds & David Montenegro","title":"Halo Moon (Khen Remix)","index":{"time":"48:07:00","frames":216525,"seconds":2887,"lenseconds":343,"lentime":"05:43"}},{"performer":"Moonwalk","title":"Elessar","index":{"time":"53:50:00","frames":242250,"seconds":3230,"lenseconds":370,"lentime":"06:10"}}]}