Carefully constructed music sets for your aural pleasure
Aerodynamix 074 @ Frisky Radio March 2020 mixed by JuanP
Progressive / Deep House
1:00:00
progressive house, deep house
SHOW TRACKLIST
SHOW CUESHEET
SHOW TXT PL

LOAD IN AUDIO PLAYER

1
Xinobi
Far Away Place (Jody Wisternoff & James Grant Extended Mix)
07:07
2
Henry Saiz
Me and My Synths (Original Mix)
06:33
3
Guy J
Cicada
07:29
4
Ewan Rill
Be a Water (Andre Absolut Remix)
05:14
5
Forniva
Chanson D amour
03:41
6
Envotion
Solar Plex (Extended Mix)
07:12
7
Cid Inc. & ORSEN
Ten (Original Mix)
07:37
8
Dosem
Stay True (Extended Mix)
05:15
9
Dylhen
Mobius (Extended Mix)
05:30
10
ARTBAT
Papillon (Original Mix)
04:22
PERFORMER "VA [Mixed by JuanP]" TITLE "Aerodynamix 074 (March 2020) Frisky Radio" FILE "91-va-aerodynamix_074_mixed_by_juan_prada_friskyradio-mar2020.mp3" WAVE TRACK 01 AUDIO PERFORMER "Xinobi" TITLE "Far Away Place (Jody Wisternoff & James Grant Extended Mix)" INDEX 01 00:00:00 TRACK 02 AUDIO PERFORMER "Henry Saiz" TITLE "Me and My Synths (Original Mix)" INDEX 01 07:07:00 TRACK 03 AUDIO PERFORMER "Guy J" TITLE "Cicada" INDEX 01 13:40:00 TRACK 04 AUDIO PERFORMER "Ewan Rill" TITLE "Be a Water (Andre Absolut Remix)" INDEX 01 21:09:00 TRACK 05 AUDIO PERFORMER "Forniva" TITLE "Chanson D amour" INDEX 01 26:23:00 TRACK 06 AUDIO PERFORMER "Envotion" TITLE "Solar Plex (Extended Mix)" INDEX 01 30:04:00 TRACK 07 AUDIO PERFORMER "Cid Inc. & ORSEN" TITLE "Ten (Original Mix)" INDEX 01 37:16:00 TRACK 08 AUDIO PERFORMER "Dosem" TITLE "Stay True (Extended Mix)" INDEX 01 44:53:00 TRACK 09 AUDIO PERFORMER "Dylhen" TITLE "Mobius (Extended Mix)" INDEX 01 50:08:00 TRACK 10 AUDIO PERFORMER "ARTBAT" TITLE "Papillon (Original Mix)" INDEX 01 55:38:00
01 Xinobi - Far Away Place (Jody Wisternoff & James Grant Extended Mix) 00:00 02 Henry Saiz - Me and My Synths (Original Mix) 07:07 03 Guy J - Cicada 13:40 04 Ewan Rill - Be a Water (Andre Absolut Remix) 21:09 05 Forniva - Chanson D amour 26:23 06 Envotion - Solar Plex (Extended Mix) 30:04 07 Cid Inc. & ORSEN - Ten (Original Mix) 37:16 08 Dosem - Stay True (Extended Mix) 44:53 09 Dylhen - Mobius (Extended Mix) 50:08 10 ARTBAT - Papillon (Original Mix) 55:38
Aerodynamix 074 @ Frisky Radio March 2020 mixed by JuanPdata/91-va-aerodynamix_074_mixed_by_juan_prada_friskyradio-mar2020-500px.pngdata/91-va-aerodynamix_074_mixed_by_juan_prada_friskyradio-mar2020.mp3data/91-va-aerodynamix_074_mixed_by_juan_prada_friskyradio-mar2020.ogg
{"Cuesheet":{"performer":"VA [Mixed by JuanP]","title":"Aerodynamix 074 (March 2020) Frisky Radio","file":"91-va-aerodynamix_074_mixed_by_juan_prada_friskyradio-mar2020.mp3"},"Track":[{"performer":"Xinobi","title":"Far Away Place (Jody Wisternoff & James Grant Extended Mix)","index":{"time":"00:00:00","frames":0,"seconds":0,"lenseconds":427,"lentime":"07:07"}},{"performer":"Henry Saiz","title":"Me and My Synths (Original Mix)","index":{"time":"07:07:00","frames":32025,"seconds":427,"lenseconds":393,"lentime":"06:33"}},{"performer":"Guy J","title":"Cicada","index":{"time":"13:40:00","frames":61500,"seconds":820,"lenseconds":449,"lentime":"07:29"}},{"performer":"Ewan Rill","title":"Be a Water (Andre Absolut Remix)","index":{"time":"21:09:00","frames":95175,"seconds":1269,"lenseconds":314,"lentime":"05:14"}},{"performer":"Forniva","title":"Chanson D amour","index":{"time":"26:23:00","frames":118725,"seconds":1583,"lenseconds":221,"lentime":"03:41"}},{"performer":"Envotion","title":"Solar Plex (Extended Mix)","index":{"time":"30:04:00","frames":135300,"seconds":1804,"lenseconds":432,"lentime":"07:12"}},{"performer":"Cid Inc. & ORSEN","title":"Ten (Original Mix)","index":{"time":"37:16:00","frames":167700,"seconds":2236,"lenseconds":457,"lentime":"07:37"}},{"performer":"Dosem","title":"Stay True (Extended Mix)","index":{"time":"44:53:00","frames":201975,"seconds":2693,"lenseconds":315,"lentime":"05:15"}},{"performer":"Dylhen","title":"Mobius (Extended Mix)","index":{"time":"50:08:00","frames":225600,"seconds":3008,"lenseconds":330,"lentime":"05:30"}},{"performer":"ARTBAT","title":"Papillon (Original Mix)","index":{"time":"55:38:00","frames":250350,"seconds":3338,"lenseconds":262,"lentime":"04:22"}}]}