Carefully constructed music sets for your aural pleasure
Aerodynamix 072 @ Frisky Radio November 2019 mixed by JuanP
Progressive House
1:00:00
progressive house
SHOW TRACKLIST
SHOW CUESHEET
SHOW TXT PL

LOAD IN AUDIO PLAYER

1
Billie Eilish
ilomilo (Henry Saiz Remix)
06:36
2
Nacho Sotomayor
Wonderful (Original Mix)
01:36
3
Nacho Sotomayor
Wonderful (Dreamers Inc & ThroDef Deep Rmx)
01:51
4
David Tort & Markem
Spectrum (Extended Mix)
05:35
5
Angelov
Retrida
06:46
6
D_Nox & Beckers
Skylab (Original Mix)
06:17
7
Colyn
Resolve
06:46
8
Avoure
Aura
07:01
9
Yotto
Is This Trance
06:38
10
Jam & Spoon
Follow Me (Jerome Isma_Ae Extended Remix)
07:14
11
L ? V
Toutes les Nuits d Amour (Extended Edit DJ)
03:40
PERFORMER "VA [Mixed by JuanP]" TITLE "Aerodynamix 072 (November 2019) Frisky Radio" FILE "89-va-aerodynamix_072_mixed_by_juan_prada_friskyradio-nov2019.mp3" WAVE TRACK 01 AUDIO PERFORMER "Billie Eilish" TITLE "ilomilo (Henry Saiz Remix)" INDEX 01 00:00:00 TRACK 02 AUDIO PERFORMER "Nacho Sotomayor" TITLE "Wonderful (Original Mix)" INDEX 01 06:36:00 TRACK 03 AUDIO PERFORMER "Nacho Sotomayor" TITLE "Wonderful (Dreamers Inc & ThroDef Deep Rmx)" INDEX 01 08:12:00 TRACK 04 AUDIO PERFORMER "David Tort & Markem" TITLE "Spectrum (Extended Mix)" INDEX 01 10:03:00 TRACK 05 AUDIO PERFORMER "Angelov" TITLE "Retrida" INDEX 01 15:38:00 TRACK 06 AUDIO PERFORMER "D_Nox & Beckers" TITLE "Skylab (Original Mix)" INDEX 01 22:24:00 TRACK 07 AUDIO PERFORMER "Colyn" TITLE "Resolve" INDEX 01 28:41:00 TRACK 08 AUDIO PERFORMER "Avoure" TITLE "Aura" INDEX 01 35:27:00 TRACK 09 AUDIO PERFORMER "Yotto" TITLE "Is This Trance" INDEX 01 42:28:00 TRACK 10 AUDIO PERFORMER "Jam & Spoon" TITLE "Follow Me (Jerome Isma_Ae Extended Remix)" INDEX 01 49:06:00 TRACK 11 AUDIO PERFORMER "L V" TITLE "Toutes les Nuits d Amour (Extended Edit DJ)" INDEX 01 56:20:00
01 Billie Eilish - ilomilo (Henry Saiz Remix) 00:00 02 Nacho Sotomayor - Wonderful (Original Mix) 06:36 03 Nacho Sotomayor - Wonderful (Dreamers Inc & ThroDef Deep Rmx) 08:12 04 David Tort & Markem - Spectrum (Extended Mix) 10:03 05 Angelov - Retrida 15:38 06 D_Nox & Beckers - Skylab (Original Mix) 22:24 07 Colyn - Resolve 28:41 08 Avoure - Aura 35:27 09 Yotto - Is This Trance 42:28 10 Jam & Spoon - Follow Me (Jerome Isma_Ae Extended Remix) 49:06 11 L ? V - Toutes les Nuits d Amour (Extended Edit DJ) 56:20
Aerodynamix 072 @ Frisky Radio November 2019 mixed by JuanPdata/89-va-aerodynamix_072_mixed_by_juan_prada_friskyradio-nov2019-500px.pngdata/89-va-aerodynamix_072_mixed_by_juan_prada_friskyradio-nov2019.mp3data/89-va-aerodynamix_072_mixed_by_juan_prada_friskyradio-nov2019.ogg
{"Cuesheet":{"performer":"VA [Mixed by JuanP]","title":"Aerodynamix 072 (November 2019) Frisky Radio","file":"89-va-aerodynamix_072_mixed_by_juan_prada_friskyradio-nov2019.mp3"},"Track":[{"performer":"Billie Eilish","title":"ilomilo (Henry Saiz Remix)","index":{"time":"00:00:00","frames":0,"seconds":0,"lenseconds":396,"lentime":"06:36"}},{"performer":"Nacho Sotomayor","title":"Wonderful (Original Mix)","index":{"time":"06:36:00","frames":29700,"seconds":396,"lenseconds":96,"lentime":"01:36"}},{"performer":"Nacho Sotomayor","title":"Wonderful (Dreamers Inc & ThroDef Deep Rmx)","index":{"time":"08:12:00","frames":36900,"seconds":492,"lenseconds":111,"lentime":"01:51"}},{"performer":"David Tort & Markem","title":"Spectrum (Extended Mix)","index":{"time":"10:03:00","frames":45225,"seconds":603,"lenseconds":335,"lentime":"05:35"}},{"performer":"Angelov","title":"Retrida","index":{"time":"15:38:00","frames":70350,"seconds":938,"lenseconds":406,"lentime":"06:46"}},{"performer":"D_Nox & Beckers","title":"Skylab (Original Mix)","index":{"time":"22:24:00","frames":100800,"seconds":1344,"lenseconds":377,"lentime":"06:17"}},{"performer":"Colyn","title":"Resolve","index":{"time":"28:41:00","frames":129075,"seconds":1721,"lenseconds":406,"lentime":"06:46"}},{"performer":"Avoure","title":"Aura","index":{"time":"35:27:00","frames":159525,"seconds":2127,"lenseconds":421,"lentime":"07:01"}},{"performer":"Yotto","title":"Is This Trance","index":{"time":"42:28:00","frames":191100,"seconds":2548,"lenseconds":398,"lentime":"06:38"}},{"performer":"Jam & Spoon","title":"Follow Me (Jerome Isma_Ae Extended Remix)","index":{"time":"49:06:00","frames":220950,"seconds":2946,"lenseconds":434,"lentime":"07:14"}},{"performer":"L ? V","title":"Toutes les Nuits d Amour (Extended Edit DJ)","index":{"time":"56:20:00","frames":253500,"seconds":3380,"lenseconds":220,"lentime":"03:40"}}]}