Carefully constructed music sets for your aural pleasure
Aerodynamix 071 @ Frisky Radio September 2019 mixed by JuanP
Progressive House / Melodic Techno
1:00:00
progressive house, melodic techno
SHOW TRACKLIST
SHOW CUESHEET
SHOW TXT PL

LOAD IN AUDIO PLAYER

1
ARTBAT
Element
06:14
2
Henry Saiz
DMT (Original Mix)
07:33
3
Adana Twins
Nobis
05:28
4
Rodriguez Jr.
Amargosa (Extended Mix)
06:46
5
Township Rebellion
Static (Original Mix)
05:59
6
Marcus Meinhardt
Rabbit Hole (Stereo Express Remix)
05:49
7
8Kays
Rainbow
05:06
8
Stil & Bense Feat. Ally
One in a Million (Lunar Plane Remix)
05:12
9
Apo Tulup
Amulet (Original Mix)
05:32
10
CASSIMM
Dances with Wolves (Chus & Ceballos Remix)
06:21
PERFORMER "VA [Mixed by JuanP]" TITLE "Aerodynamix 071 (September 2019) Frisky Radio" FILE "88-va-aerodynamix_071_mixed_by_juan_prada_friskyradio-sep2019.mp3" WAVE TRACK 01 AUDIO PERFORMER "ARTBAT" TITLE "Element" INDEX 01 00:00:00 TRACK 02 AUDIO PERFORMER "Henry Saiz" TITLE "DMT (Original Mix)" INDEX 01 06:14:00 TRACK 03 AUDIO PERFORMER "Adana Twins" TITLE "Nobis" INDEX 01 13:47:00 TRACK 04 AUDIO PERFORMER "Rodriguez Jr." TITLE "Amargosa (Extended Mix)" INDEX 01 19:15:00 TRACK 05 AUDIO PERFORMER "Township Rebellion" TITLE "Static (Original Mix)" INDEX 01 26:01:00 TRACK 06 AUDIO PERFORMER "Marcus Meinhardt" TITLE "Rabbit Hole (Stereo Express Remix)" INDEX 01 32:00:00 TRACK 07 AUDIO PERFORMER "8Kays" TITLE "Rainbow" INDEX 01 37:49:00 TRACK 08 AUDIO PERFORMER "Stil & Bense Feat. Ally" TITLE "One in a Million (Lunar Plane Remix)" INDEX 01 42:55:00 TRACK 09 AUDIO PERFORMER "Apo Tulup" TITLE "Amulet (Original Mix)" INDEX 01 48:07:00 TRACK 10 AUDIO PERFORMER "CASSIMM" TITLE "Dances with Wolves (Chus & Ceballos Remix)" INDEX 01 53:39:00
01 ARTBAT - Element 00:00 02 Henry Saiz - DMT (Original Mix) 06:14 03 Adana Twins - Nobis 13:47 04 Rodriguez Jr. - Amargosa (Extended Mix) 19:15 05 Township Rebellion - Static (Original Mix) 26:01 06 Marcus Meinhardt - Rabbit Hole (Stereo Express Remix) 32:00 07 8Kays - Rainbow 37:49 08 Stil & Bense Feat. Ally - One in a Million (Lunar Plane Remix) 42:55 09 Apo Tulup - Amulet (Original Mix) 48:07 10 CASSIMM - Dances with Wolves (Chus & Ceballos Remix) 53:39
Aerodynamix 071 @ Frisky Radio September 2019 mixed by JuanPdata/88-va-aerodynamix_071_mixed_by_juan_prada_friskyradio-sep2019-500px.pngdata/88-va-aerodynamix_071_mixed_by_juan_prada_friskyradio-sep2019.mp3data/88-va-aerodynamix_071_mixed_by_juan_prada_friskyradio-sep2019.ogg
{"Cuesheet":{"performer":"VA [Mixed by JuanP]","title":"Aerodynamix 071 (September 2019) Frisky Radio","file":"88-va-aerodynamix_071_mixed_by_juan_prada_friskyradio-sep2019.mp3"},"Track":[{"performer":"ARTBAT","title":"Element","index":{"time":"00:00:00","frames":0,"seconds":0,"lenseconds":374,"lentime":"06:14"}},{"performer":"Henry Saiz","title":"DMT (Original Mix)","index":{"time":"06:14:00","frames":28050,"seconds":374,"lenseconds":453,"lentime":"07:33"}},{"performer":"Adana Twins","title":"Nobis","index":{"time":"13:47:00","frames":62025,"seconds":827,"lenseconds":328,"lentime":"05:28"}},{"performer":"Rodriguez Jr.","title":"Amargosa (Extended Mix)","index":{"time":"19:15:00","frames":86625,"seconds":1155,"lenseconds":406,"lentime":"06:46"}},{"performer":"Township Rebellion","title":"Static (Original Mix)","index":{"time":"26:01:00","frames":117075,"seconds":1561,"lenseconds":359,"lentime":"05:59"}},{"performer":"Marcus Meinhardt","title":"Rabbit Hole (Stereo Express Remix)","index":{"time":"32:00:00","frames":144000,"seconds":1920,"lenseconds":349,"lentime":"05:49"}},{"performer":"8Kays","title":"Rainbow","index":{"time":"37:49:00","frames":170175,"seconds":2269,"lenseconds":306,"lentime":"05:06"}},{"performer":"Stil & Bense Feat. Ally","title":"One in a Million (Lunar Plane Remix)","index":{"time":"42:55:00","frames":193125,"seconds":2575,"lenseconds":312,"lentime":"05:12"}},{"performer":"Apo Tulup","title":"Amulet (Original Mix)","index":{"time":"48:07:00","frames":216525,"seconds":2887,"lenseconds":332,"lentime":"05:32"}},{"performer":"CASSIMM","title":"Dances with Wolves (Chus & Ceballos Remix)","index":{"time":"53:39:00","frames":241425,"seconds":3219,"lenseconds":381,"lentime":"06:21"}}]}