Carefully constructed music sets for your aural pleasure
Aerodynamix 070 @ Frisky Radio July 2019 mixed by JuanP
Progressive House
1:00:00
progressive house
SHOW TRACKLIST
SHOW CUESHEET
SHOW TXT PL

LOAD IN AUDIO PLAYER

1
Lane 8, Yotto
I/Y
05:43
2
Aneesh Gera
Solace (Extended Mix)
05:28
3
Arm In Arm
Hunger For Your Vibe (Moonwalk Remix)
04:56
4
Cristoph & Quivver
In Name Only (Moonwalk Remix)
05:13
5
Kamilo Sanclemente
From The Sky (Original Mix)
07:17
6
Eelke Kleijn
8 Bit Era (Nick Warren & Nicolas Rada Extended Remix)
07:48
7
Sebastien Leger
Skadi
06:15
8
D-Nox & Beckers
Mechanism
07:44
9
Matador, ARTBAT
Apollo 11
06:32
10
Stereo Express
Aquiver
03:04
PERFORMER "VA [Mixed by JuanP]" TITLE "Aerodynamix 070 (July 2019) Frisky Radio" FILE "87-va-aerodynamix_070_mixed_by_juan_prada_friskyradio-jul2019.mp3" WAVE TRACK 01 AUDIO PERFORMER "Lane 8, Yotto" TITLE "I/Y" INDEX 01 00:00:00 TRACK 02 AUDIO PERFORMER "Aneesh Gera" TITLE "Solace (Extended Mix)" INDEX 01 05:43:00 TRACK 03 AUDIO PERFORMER "Arm In Arm" TITLE "Hunger For Your Vibe (Moonwalk Remix)" INDEX 01 11:11:00 TRACK 04 AUDIO PERFORMER "Cristoph & Quivver" TITLE "In Name Only (Moonwalk Remix)" INDEX 01 16:07:00 TRACK 05 AUDIO PERFORMER "Kamilo Sanclemente" TITLE "From The Sky (Original Mix)" INDEX 01 21:20:00 TRACK 06 AUDIO PERFORMER "Eelke Kleijn" TITLE "8 Bit Era (Nick Warren & Nicolas Rada Extended Remix)" INDEX 01 28:37:00 TRACK 07 AUDIO PERFORMER "Sebastien Leger" TITLE "Skadi" INDEX 01 36:25:00 TRACK 08 AUDIO PERFORMER "D-Nox & Beckers" TITLE "Mechanism" INDEX 01 42:40:00 TRACK 09 AUDIO PERFORMER "Matador, ARTBAT" TITLE "Apollo 11" INDEX 01 50:24:00 TRACK 10 AUDIO PERFORMER "Stereo Express" TITLE "Aquiver" INDEX 01 56:56:00
01 Lane 8, Yotto - I/Y 00:00 02 Aneesh Gera - Solace (Extended Mix) 05:43 03 Arm In Arm - Hunger For Your Vibe (Moonwalk Remix) 11:11 04 Cristoph & Quivver - In Name Only (Moonwalk Remix) 16:07 05 Kamilo Sanclemente - From The Sky (Original Mix) 21:20 06 Eelke Kleijn - 8 Bit Era (Nick Warren & Nicolas Rada Extended Remix) 28:37 07 Sebastien Leger - Skadi 36:25 08 D-Nox & Beckers - Mechanism 42:40 09 Matador, ARTBAT - Apollo 11 50:24 10 Stereo Express - Aquiver 56:56
Aerodynamix 070 @ Frisky Radio July 2019 mixed by JuanPdata/87-va-aerodynamix_070_mixed_by_juan_prada_friskyradio-jul2019-500px.pngdata/87-va-aerodynamix_070_mixed_by_juan_prada_friskyradio-jul2019.mp3data/87-va-aerodynamix_070_mixed_by_juan_prada_friskyradio-jul2019.ogg
{"Cuesheet":{"performer":"VA [Mixed by JuanP]","title":"Aerodynamix 070 (July 2019) Frisky Radio","file":"87-va-aerodynamix_070_mixed_by_juan_prada_friskyradio-jul2019.mp3"},"Track":[{"performer":"Lane 8, Yotto","title":"I\/Y","index":{"time":"00:00:00","frames":0,"seconds":0,"lenseconds":343,"lentime":"05:43"}},{"performer":"Aneesh Gera","title":"Solace (Extended Mix)","index":{"time":"05:43:00","frames":25725,"seconds":343,"lenseconds":328,"lentime":"05:28"}},{"performer":"Arm In Arm","title":"Hunger For Your Vibe (Moonwalk Remix)","index":{"time":"11:11:00","frames":50325,"seconds":671,"lenseconds":296,"lentime":"04:56"}},{"performer":"Cristoph & Quivver","title":"In Name Only (Moonwalk Remix)","index":{"time":"16:07:00","frames":72525,"seconds":967,"lenseconds":313,"lentime":"05:13"}},{"performer":"Kamilo Sanclemente","title":"From The Sky (Original Mix)","index":{"time":"21:20:00","frames":96000,"seconds":1280,"lenseconds":437,"lentime":"07:17"}},{"performer":"Eelke Kleijn","title":"8 Bit Era (Nick Warren & Nicolas Rada Extended Remix)","index":{"time":"28:37:00","frames":128775,"seconds":1717,"lenseconds":468,"lentime":"07:48"}},{"performer":"Sebastien Leger","title":"Skadi","index":{"time":"36:25:00","frames":163875,"seconds":2185,"lenseconds":375,"lentime":"06:15"}},{"performer":"D-Nox & Beckers","title":"Mechanism","index":{"time":"42:40:00","frames":192000,"seconds":2560,"lenseconds":464,"lentime":"07:44"}},{"performer":"Matador, ARTBAT","title":"Apollo 11","index":{"time":"50:24:00","frames":226800,"seconds":3024,"lenseconds":392,"lentime":"06:32"}},{"performer":"Stereo Express","title":"Aquiver","index":{"time":"56:56:00","frames":256200,"seconds":3416,"lenseconds":184,"lentime":"03:04"}}]}