Carefully constructed music sets for your aural pleasure
Aerodynamix 066 @ Frisky Radio November 2018 mixed by JuanP
Progressive House
1:00:00
progressive house
SHOW TRACKLIST
SHOW CUESHEET
SHOW TXT PL

LOAD IN AUDIO PLAYER

1
ATTLAS
Courante
05:30
2
Andrew Rayel
Moments (Spencer Brown 39s Hypnotic Extended Remix)
05:07
3
Paul Thomas, Aly Fila
UV (Matan Caspi Extended Remix)
05:36
4
Movement Machina
Scars (Original Mix)
07:26
5
D Nox, Beckers, Santiago Franch
Radiation (Binaryh Remix)
05:53
6
B B E
Seven Days One Week (Yotto Remix)
07:25
7
Rafael Cerato, Haze M
Perihelion (Original Mix)
06:09
8
Energy 52
Cafe Del Mar (Tale Of Us Renaissance Remix)
06:24
9
Shane 54
Dark & Long Dark Train (Original Mix)
04:36
10
Lumisade
Onawo (Extended Mix)
05:54
PERFORMER "VA [Mixed by JuanP]" TITLE "Aerodynamix 066 (November 2018) Frisky Radio" FILE "83-va-aerodynamix_066_mixed_by_juan_prada_friskyradio-nov2018.mp3" WAVE TRACK 01 AUDIO PERFORMER "ATTLAS" TITLE "Courante" INDEX 01 00:00:00 TRACK 02 AUDIO PERFORMER "Andrew Rayel" TITLE "Moments (Spencer Brown 39s Hypnotic Extended Remix)" INDEX 01 05:30:00 TRACK 03 AUDIO PERFORMER "Paul Thomas, Aly Fila" TITLE "UV (Matan Caspi Extended Remix)" INDEX 01 10:37:00 TRACK 04 AUDIO PERFORMER "Movement Machina" TITLE "Scars (Original Mix)" INDEX 01 16:13:00 TRACK 05 AUDIO PERFORMER "D Nox, Beckers, Santiago Franch" TITLE "Radiation (Binaryh Remix)" INDEX 01 23:39:00 TRACK 06 AUDIO PERFORMER "B B E" TITLE "Seven Days One Week (Yotto Remix)" INDEX 01 29:32:00 TRACK 07 AUDIO PERFORMER "Rafael Cerato, Haze M" TITLE "Perihelion (Original Mix)" INDEX 01 36:57:00 TRACK 08 AUDIO PERFORMER "Energy 52" TITLE "Cafe Del Mar (Tale Of Us Renaissance Remix)" INDEX 01 43:06:00 TRACK 09 AUDIO PERFORMER "Shane 54" TITLE "Dark & Long Dark Train (Original Mix)" INDEX 01 49:30:00 TRACK 10 AUDIO PERFORMER "Lumisade" TITLE "Onawo (Extended Mix)" INDEX 01 54:06:00
01 ATTLAS - Courante 00:00 02 Andrew Rayel - Moments (Spencer Brown 39s Hypnotic Extended Remix) 05:30 03 Paul Thomas, Aly Fila - UV (Matan Caspi Extended Remix) 10:37 04 Movement Machina - Scars (Original Mix) 16:13 05 D Nox, Beckers, Santiago Franch - Radiation (Binaryh Remix) 23:39 06 B B E - Seven Days One Week (Yotto Remix) 29:32 07 Rafael Cerato, Haze M - Perihelion (Original Mix) 36:57 08 Energy 52 - Cafe Del Mar (Tale Of Us Renaissance Remix) 43:06 09 Shane 54 - Dark & Long Dark Train (Original Mix) 49:30 10 Lumisade - Onawo (Extended Mix) 54:06
Aerodynamix 066 @ Frisky Radio November 2018 mixed by JuanPdata/83-va-aerodynamix_066_mixed_by_juan_prada_friskyradio-nov2018-500px.pngdata/83-va-aerodynamix_066_mixed_by_juan_prada_friskyradio-nov2018.mp3data/83-va-aerodynamix_066_mixed_by_juan_prada_friskyradio-nov2018.ogg
{"Cuesheet":{"performer":"VA [Mixed by JuanP]","title":"Aerodynamix 066 (November 2018) Frisky Radio","file":"83-va-aerodynamix_066_mixed_by_juan_prada_friskyradio-nov2018.mp3"},"Track":[{"performer":"ATTLAS","title":"Courante","index":{"time":"00:00:00","frames":0,"seconds":0,"lenseconds":330,"lentime":"05:30"}},{"performer":"Andrew Rayel","title":"Moments (Spencer Brown 39s Hypnotic Extended Remix)","index":{"time":"05:30:00","frames":24750,"seconds":330,"lenseconds":307,"lentime":"05:07"}},{"performer":"Paul Thomas, Aly Fila","title":"UV (Matan Caspi Extended Remix)","index":{"time":"10:37:00","frames":47775,"seconds":637,"lenseconds":336,"lentime":"05:36"}},{"performer":"Movement Machina","title":"Scars (Original Mix)","index":{"time":"16:13:00","frames":72975,"seconds":973,"lenseconds":446,"lentime":"07:26"}},{"performer":"D Nox, Beckers, Santiago Franch","title":"Radiation (Binaryh Remix)","index":{"time":"23:39:00","frames":106425,"seconds":1419,"lenseconds":353,"lentime":"05:53"}},{"performer":"B B E","title":"Seven Days One Week (Yotto Remix)","index":{"time":"29:32:00","frames":132900,"seconds":1772,"lenseconds":445,"lentime":"07:25"}},{"performer":"Rafael Cerato, Haze M","title":"Perihelion (Original Mix)","index":{"time":"36:57:00","frames":166275,"seconds":2217,"lenseconds":369,"lentime":"06:09"}},{"performer":"Energy 52","title":"Cafe Del Mar (Tale Of Us Renaissance Remix)","index":{"time":"43:06:00","frames":193950,"seconds":2586,"lenseconds":384,"lentime":"06:24"}},{"performer":"Shane 54","title":"Dark & Long Dark Train (Original Mix)","index":{"time":"49:30:00","frames":222750,"seconds":2970,"lenseconds":276,"lentime":"04:36"}},{"performer":"Lumisade","title":"Onawo (Extended Mix)","index":{"time":"54:06:00","frames":243450,"seconds":3246,"lenseconds":354,"lentime":"05:54"}}]}