Carefully constructed music sets for your aural pleasure
Aerodynamix 064 @ Frisky Radio July 2018 mixed by JuanP
Progressive House
1:00:00
progressive house
SHOW TRACKLIST
SHOW CUESHEET
SHOW TXT PL

LOAD IN AUDIO PLAYER

1
Lane 8
Little Voices (Original Mix)
06:27
2
Orsen
Driftwood (Extended Mix)
06:27
3
Pysh
Visions (Eelke Kleijn Remix)
07:29
4
Dylhen
Drift (Extended Mix)
06:13
5
Zoo Brazil feat. Wolf & Moon
From a Distance (Jerome Isma_Ae & Alastor Remix)
06:12
6
LTN & Stendahl feat Arielle Maren
Black Hole (Extended Mix)
03:37
7
Gabriel & Dresden feat Jan Burton
Underwater (Tinlicker Extended Mix)
07:44
8
Armin van Buuren feat. Justine Suissa
Burned With Desire (LTN Extended Sunrise Remix)
03:37
9
ilan Bluestone, Maor Levi feat El Waves
Will We Remain (Spencer Brown Remix)
05:37
10
Above & Beyond ft. Richard Bedford
Bittersweet & Blue
05:03
11
JuanP
Aerodynamix 064 Outro
01:34
PERFORMER "VA [Mixed by JuanP]" TITLE "Aerodynamix 064 (July 2018) Frisky Radio" FILE "81-va-aerodynamix_064_mixed_by_juan_prada_friskyradio-jul2018.mp3" WAVE TRACK 01 AUDIO PERFORMER "Lane 8" TITLE "Little Voices (Original Mix)" INDEX 01 00:00:00 TRACK 02 AUDIO PERFORMER "Orsen" TITLE "Driftwood (Extended Mix)" INDEX 01 06:27:00 TRACK 03 AUDIO PERFORMER "Pysh" TITLE "Visions (Eelke Kleijn Remix)" INDEX 01 12:54:00 TRACK 04 AUDIO PERFORMER "Dylhen" TITLE "Drift (Extended Mix)" INDEX 01 20:23:00 TRACK 05 AUDIO PERFORMER "Zoo Brazil feat. Wolf & Moon" TITLE "From a Distance (Jerome Isma_Ae & Alastor Remix)" INDEX 01 26:36:00 TRACK 06 AUDIO PERFORMER "LTN & Stendahl feat Arielle Maren" TITLE "Black Hole (Extended Mix)" INDEX 01 32:48:00 TRACK 07 AUDIO PERFORMER "Gabriel & Dresden feat Jan Burton" TITLE "Underwater (Tinlicker Extended Mix)" INDEX 01 36:25:00 TRACK 08 AUDIO PERFORMER "Armin van Buuren feat. Justine Suissa" TITLE "Burned With Desire (LTN Extended Sunrise Remix)" INDEX 01 44:09:00 TRACK 09 AUDIO PERFORMER "ilan Bluestone, Maor Levi feat El Waves" TITLE "Will We Remain (Spencer Brown Remix)" INDEX 01 47:46:00 TRACK 10 AUDIO PERFORMER "Above & Beyond ft. Richard Bedford" TITLE "Bittersweet & Blue" INDEX 01 53:23:00 TRACK 11 AUDIO PERFORMER "JuanP" TITLE "Aerodynamix 064 Outro" INDEX 01 58:26:00
01 Lane 8 - Little Voices (Original Mix) 00:00 02 Orsen - Driftwood (Extended Mix) 06:27 03 Pysh - Visions (Eelke Kleijn Remix) 12:54 04 Dylhen - Drift (Extended Mix) 20:23 05 Zoo Brazil feat. Wolf & Moon - From a Distance (Jerome Isma_Ae & Alastor Remix) 26:36 06 LTN & Stendahl feat Arielle Maren - Black Hole (Extended Mix) 32:48 07 Gabriel & Dresden feat Jan Burton - Underwater (Tinlicker Extended Mix) 36:25 08 Armin van Buuren feat. Justine Suissa - Burned With Desire (LTN Extended Sunrise Remix) 44:09 09 ilan Bluestone, Maor Levi feat El Waves - Will We Remain (Spencer Brown Remix) 47:46 10 Above & Beyond ft. Richard Bedford - Bittersweet & Blue 53:23 11 JuanP - Aerodynamix 064 Outro 58:26
Aerodynamix 064 @ Frisky Radio July 2018 mixed by JuanPdata/81-va-aerodynamix_064_mixed_by_juan_prada_friskyradio-jul2018-500px.pngdata/81-va-aerodynamix_064_mixed_by_juan_prada_friskyradio-jul2018.mp3data/81-va-aerodynamix_064_mixed_by_juan_prada_friskyradio-jul2018.ogg
{"Cuesheet":{"performer":"VA [Mixed by JuanP]","title":"Aerodynamix 064 (July 2018) Frisky Radio","file":"81-va-aerodynamix_064_mixed_by_juan_prada_friskyradio-jul2018.mp3"},"Track":[{"performer":"Lane 8","title":"Little Voices (Original Mix)","index":{"time":"00:00:00","frames":0,"seconds":0,"lenseconds":387,"lentime":"06:27"}},{"performer":"Orsen","title":"Driftwood (Extended Mix)","index":{"time":"06:27:00","frames":29025,"seconds":387,"lenseconds":387,"lentime":"06:27"}},{"performer":"Pysh","title":"Visions (Eelke Kleijn Remix)","index":{"time":"12:54:00","frames":58050,"seconds":774,"lenseconds":449,"lentime":"07:29"}},{"performer":"Dylhen","title":"Drift (Extended Mix)","index":{"time":"20:23:00","frames":91725,"seconds":1223,"lenseconds":373,"lentime":"06:13"}},{"performer":"Zoo Brazil feat. Wolf & Moon","title":"From a Distance (Jerome Isma_Ae & Alastor Remix)","index":{"time":"26:36:00","frames":119700,"seconds":1596,"lenseconds":372,"lentime":"06:12"}},{"performer":"LTN & Stendahl feat Arielle Maren","title":"Black Hole (Extended Mix)","index":{"time":"32:48:00","frames":147600,"seconds":1968,"lenseconds":217,"lentime":"03:37"}},{"performer":"Gabriel & Dresden feat Jan Burton","title":"Underwater (Tinlicker Extended Mix)","index":{"time":"36:25:00","frames":163875,"seconds":2185,"lenseconds":464,"lentime":"07:44"}},{"performer":"Armin van Buuren feat. Justine Suissa","title":"Burned With Desire (LTN Extended Sunrise Remix)","index":{"time":"44:09:00","frames":198675,"seconds":2649,"lenseconds":217,"lentime":"03:37"}},{"performer":"ilan Bluestone, Maor Levi feat El Waves","title":"Will We Remain (Spencer Brown Remix)","index":{"time":"47:46:00","frames":214950,"seconds":2866,"lenseconds":337,"lentime":"05:37"}},{"performer":"Above & Beyond ft. Richard Bedford","title":"Bittersweet & Blue","index":{"time":"53:23:00","frames":240225,"seconds":3203,"lenseconds":303,"lentime":"05:03"}},{"performer":"JuanP","title":"Aerodynamix 064 Outro","index":{"time":"58:26:00","frames":262950,"seconds":3506,"lenseconds":94,"lentime":"01:34"}}]}