Carefully constructed music sets for your aural pleasure
Aerodynamix 062 @ Frisky Radio March 2018 mixed by JuanP
Progressive House
1:00:00
progressive house
SHOW TRACKLIST
SHOW CUESHEET
SHOW TXT PL

LOAD IN AUDIO PLAYER

1
Nora En Pure
Trailblazer
03:30
2
Budakid
Memories (Original Mix)
04:45
3
Ben Bohmer
After Earth (Original Mix)
05:59
4
Nick Warren, Tripswitch
Voight Kampff
07:49
5
Butch
Countach
07:01
6
Guy J
Aurora (Original Mix)
05:28
7
James Monro
Galactix (Rick Pier O´neil Remix)
06:12
8
Solee
Anmut (Original Mix)
07:31
9
PROFF
The Cycle (Original Mix)
04:38
10
RNX
Atoms (Extended Mix)
04:50
11
DJuanP
Aerodynamix 062 Ending
02:17
PERFORMER "VA [Mixed by JuanP]" TITLE "Aerodynamix 062 (March 2018) Frisky Radio" FILE "79-va-aerodynamix_062_mixed_by_juan_prada_friskyradio-mar2018.mp3" WAVE TRACK 01 AUDIO PERFORMER "Nora En Pure" TITLE "Trailblazer" INDEX 01 00:00:00 TRACK 02 AUDIO PERFORMER "Budakid" TITLE "Memories (Original Mix)" INDEX 01 03:30:00 TRACK 03 AUDIO PERFORMER "Ben Bohmer" TITLE "After Earth (Original Mix)" INDEX 01 08:15:00 TRACK 04 AUDIO PERFORMER "Nick Warren, Tripswitch" TITLE "Voight Kampff" INDEX 01 14:14:00 TRACK 05 AUDIO PERFORMER "Butch" TITLE "Countach" INDEX 01 22:03:00 TRACK 06 AUDIO PERFORMER "Guy J" TITLE "Aurora (Original Mix)" INDEX 01 29:04:00 TRACK 07 AUDIO PERFORMER "James Monro" TITLE "Galactix (Rick Pier O´neil Remix)" INDEX 01 34:32:00 TRACK 08 AUDIO PERFORMER "Solee" TITLE "Anmut (Original Mix)" INDEX 01 40:44:00 TRACK 09 AUDIO PERFORMER "PROFF" TITLE "The Cycle (Original Mix)" INDEX 01 48:15:00 TRACK 10 AUDIO PERFORMER "RNX" TITLE "Atoms (Extended Mix)" INDEX 01 52:53:00 TRACK 11 AUDIO PERFORMER "DJuanP" TITLE "Aerodynamix 062 Ending" INDEX 01 57:43:00
01 Nora En Pure - Trailblazer 00:00 02 Budakid - Memories (Original Mix) 03:30 03 Ben Bohmer - After Earth (Original Mix) 08:15 04 Nick Warren, Tripswitch - Voight Kampff 14:14 05 Butch - Countach 22:03 06 Guy J - Aurora (Original Mix) 29:04 07 James Monro - Galactix (Rick Pier O´neil Remix) 34:32 08 Solee - Anmut (Original Mix) 40:44 09 PROFF - The Cycle (Original Mix) 48:15 10 RNX - Atoms (Extended Mix) 52:53 11 DJuanP - Aerodynamix 062 Ending 57:43
Aerodynamix 062 @ Frisky Radio March 2018 mixed by JuanPdata/79-va-aerodynamix_062_mixed_by_juan_prada_friskyradio-mar2018-500px.pngdata/79-va-aerodynamix_062_mixed_by_juan_prada_friskyradio-mar2018.mp3data/79-va-aerodynamix_062_mixed_by_juan_prada_friskyradio-mar2018.ogg
{"Cuesheet":{"performer":"VA [Mixed by JuanP]","title":"Aerodynamix 062 (March 2018) Frisky Radio","file":"79-va-aerodynamix_062_mixed_by_juan_prada_friskyradio-mar2018.mp3"},"Track":[{"performer":"Nora En Pure","title":"Trailblazer","index":{"time":"00:00:00","frames":0,"seconds":0,"lenseconds":210,"lentime":"03:30"}},{"performer":"Budakid","title":"Memories (Original Mix)","index":{"time":"03:30:00","frames":15750,"seconds":210,"lenseconds":285,"lentime":"04:45"}},{"performer":"Ben Bohmer","title":"After Earth (Original Mix)","index":{"time":"08:15:00","frames":37125,"seconds":495,"lenseconds":359,"lentime":"05:59"}},{"performer":"Nick Warren, Tripswitch","title":"Voight Kampff","index":{"time":"14:14:00","frames":64050,"seconds":854,"lenseconds":469,"lentime":"07:49"}},{"performer":"Butch","title":"Countach","index":{"time":"22:03:00","frames":99225,"seconds":1323,"lenseconds":421,"lentime":"07:01"}},{"performer":"Guy J","title":"Aurora (Original Mix)","index":{"time":"29:04:00","frames":130800,"seconds":1744,"lenseconds":328,"lentime":"05:28"}},{"performer":"James Monro","title":"Galactix (Rick Pier O\u00b4neil Remix)","index":{"time":"34:32:00","frames":155400,"seconds":2072,"lenseconds":372,"lentime":"06:12"}},{"performer":"Solee","title":"Anmut (Original Mix)","index":{"time":"40:44:00","frames":183300,"seconds":2444,"lenseconds":451,"lentime":"07:31"}},{"performer":"PROFF","title":"The Cycle (Original Mix)","index":{"time":"48:15:00","frames":217125,"seconds":2895,"lenseconds":278,"lentime":"04:38"}},{"performer":"RNX","title":"Atoms (Extended Mix)","index":{"time":"52:53:00","frames":237975,"seconds":3173,"lenseconds":290,"lentime":"04:50"}},{"performer":"DJuanP","title":"Aerodynamix 062 Ending","index":{"time":"57:43:00","frames":259725,"seconds":3463,"lenseconds":137,"lentime":"02:17"}}]}