Carefully constructed music sets for your aural pleasure
Aerodynamix 061 @ Frisky Radio January 2018 mixed by JuanP
Progressive House
1:00:00
progressive house
SHOW TRACKLIST
SHOW CUESHEET
SHOW TXT PL

LOAD IN AUDIO PLAYER

1
Dezza
Escapist (Original Mix)
06:46
2
Approaching Black
Platform 7 (Original Mix)
05:51
3
Fat Sushi
Solaris (Original Mix)
04:41
4
Prove Them Wrong & Vertigo
Going Through Haze (Original Fixed)
07:32
5
Jacme
White Song (Original)
06:03
6
Yotto
North (Original Mix)
05:59
7
Supacooks
Aftermath (Original Mix)
05:01
8
Jeremy Olander
Gattaca (Original Mix)
05:25
9
Aquastic & Cherry Pheromone
Pretty Dreams
05:07
10
Jallen
Across the Sea (Original Mix)
07:35
PERFORMER "VA [Mixed by JuanP]" TITLE "Aerodynamix 061 (January 2018) Frisky Radio" FILE "78-va-aerodynamix_061_mixed_by_juan_prada_friskyradio-jan2018.mp3" WAVE TRACK 01 AUDIO PERFORMER "Dezza" TITLE "Escapist (Original Mix)" INDEX 01 00:00:00 TRACK 02 AUDIO PERFORMER "Approaching Black" TITLE "Platform 7 (Original Mix)" INDEX 01 06:46:00 TRACK 03 AUDIO PERFORMER "Fat Sushi" TITLE "Solaris (Original Mix)" INDEX 01 12:37:00 TRACK 04 AUDIO PERFORMER "Prove Them Wrong & Vertigo" TITLE "Going Through Haze (Original Fixed)" INDEX 01 17:18:00 TRACK 05 AUDIO PERFORMER "Jacme" TITLE "White Song (Original)" INDEX 01 24:50:00 TRACK 06 AUDIO PERFORMER "Yotto" TITLE "North (Original Mix)" INDEX 01 30:53:00 TRACK 07 AUDIO PERFORMER "Supacooks" TITLE "Aftermath (Original Mix)" INDEX 01 36:52:00 TRACK 08 AUDIO PERFORMER "Jeremy Olander" TITLE "Gattaca (Original Mix)" INDEX 01 41:53:00 TRACK 09 AUDIO PERFORMER "Aquastic & Cherry Pheromone" TITLE "Pretty Dreams" INDEX 01 47:18:00 TRACK 10 AUDIO PERFORMER "Jallen" TITLE "Across the Sea (Original Mix)" INDEX 01 52:25:00
01 Dezza - Escapist (Original Mix) 00:00 02 Approaching Black - Platform 7 (Original Mix) 06:46 03 Fat Sushi - Solaris (Original Mix) 12:37 04 Prove Them Wrong & Vertigo - Going Through Haze (Original Fixed) 17:18 05 Jacme - White Song (Original) 24:50 06 Yotto - North (Original Mix) 30:53 07 Supacooks - Aftermath (Original Mix) 36:52 08 Jeremy Olander - Gattaca (Original Mix) 41:53 09 Aquastic & Cherry Pheromone - Pretty Dreams 47:18 10 Jallen - Across the Sea (Original Mix) 52:25
Aerodynamix 061 @ Frisky Radio January 2018 mixed by JuanPdata/78-va-aerodynamix_061_mixed_by_juan_prada_friskyradio-jan2018-500px.pngdata/78-va-aerodynamix_061_mixed_by_juan_prada_friskyradio-jan2018.mp3data/78-va-aerodynamix_061_mixed_by_juan_prada_friskyradio-jan2018.ogg
{"Cuesheet":{"performer":"VA [Mixed by JuanP]","title":"Aerodynamix 061 (January 2018) Frisky Radio","file":"78-va-aerodynamix_061_mixed_by_juan_prada_friskyradio-jan2018.mp3"},"Track":[{"performer":"Dezza","title":"Escapist (Original Mix)","index":{"time":"00:00:00","frames":0,"seconds":0,"lenseconds":406,"lentime":"06:46"}},{"performer":"Approaching Black","title":"Platform 7 (Original Mix)","index":{"time":"06:46:00","frames":30450,"seconds":406,"lenseconds":351,"lentime":"05:51"}},{"performer":"Fat Sushi","title":"Solaris (Original Mix)","index":{"time":"12:37:00","frames":56775,"seconds":757,"lenseconds":281,"lentime":"04:41"}},{"performer":"Prove Them Wrong & Vertigo","title":"Going Through Haze (Original Fixed)","index":{"time":"17:18:00","frames":77850,"seconds":1038,"lenseconds":452,"lentime":"07:32"}},{"performer":"Jacme","title":"White Song (Original)","index":{"time":"24:50:00","frames":111750,"seconds":1490,"lenseconds":363,"lentime":"06:03"}},{"performer":"Yotto","title":"North (Original Mix)","index":{"time":"30:53:00","frames":138975,"seconds":1853,"lenseconds":359,"lentime":"05:59"}},{"performer":"Supacooks","title":"Aftermath (Original Mix)","index":{"time":"36:52:00","frames":165900,"seconds":2212,"lenseconds":301,"lentime":"05:01"}},{"performer":"Jeremy Olander","title":"Gattaca (Original Mix)","index":{"time":"41:53:00","frames":188475,"seconds":2513,"lenseconds":325,"lentime":"05:25"}},{"performer":"Aquastic & Cherry Pheromone","title":"Pretty Dreams","index":{"time":"47:18:00","frames":212850,"seconds":2838,"lenseconds":307,"lentime":"05:07"}},{"performer":"Jallen","title":"Across the Sea (Original Mix)","index":{"time":"52:25:00","frames":235875,"seconds":3145,"lenseconds":455,"lentime":"07:35"}}]}