Carefully constructed music sets for your aural pleasure
Aerodynamix 058 @ Frisky Radio October 2017 mixed by JuanP
Deep / Progressive House
1:00:00
deep house, progressive house
SHOW TRACKLIST
SHOW CUESHEET
SHOW TXT PL

LOAD IN AUDIO PLAYER

1
Talamanca
Deep Sea (Original Mix)
02:09
2
Joris Voorn
Mugged (Edwin Oosterwal Stripped Edit)
04:21
3
Alyne
Village People (Original Mix)
08:09
4
Cid Inc
Shifter (Original Mix)
05:59
5
16 Bit Lolitas
Personal Space (Guy J Remix)
06:58
6
Ezequiel Arias
Spaceless (Original Mix)
06:11
7
Stoneface & Terminal present Gundamea
The Moment Before (Extended Mix)
06:58
8
Grum, Kevin McKay
Dark Train (Original Mix)
03:53
9
Infusion
Love and Imitation (Guy J Remix)
06:42
10
Worakls
Sanctis (Original Mix)
08:40
PERFORMER "VA [Mixed by JuanP]" TITLE "Aerodynamix 058 (October 2017) Frisky Radio" FILE "75-va-aerodynamix_058_mixed_by_juan_prada_friskyradio-oct2017.mp3" WAVE TRACK 01 AUDIO PERFORMER "Talamanca" TITLE "Deep Sea (Original Mix)" INDEX 01 00:00:00 TRACK 02 AUDIO PERFORMER "Joris Voorn" TITLE "Mugged (Edwin Oosterwal Stripped Edit)" INDEX 01 02:09:00 TRACK 03 AUDIO PERFORMER "Alyne" TITLE "Village People (Original Mix)" INDEX 01 06:30:00 TRACK 04 AUDIO PERFORMER "Cid Inc" TITLE "Shifter (Original Mix)" INDEX 01 14:39:00 TRACK 05 AUDIO PERFORMER "16 Bit Lolitas" TITLE "Personal Space (Guy J Remix)" INDEX 01 20:38:00 TRACK 06 AUDIO PERFORMER "Ezequiel Arias" TITLE "Spaceless (Original Mix)" INDEX 01 27:36:00 TRACK 07 AUDIO PERFORMER "Stoneface & Terminal present Gundamea" TITLE "The Moment Before (Extended Mix)" INDEX 01 33:47:00 TRACK 08 AUDIO PERFORMER "Grum, Kevin McKay" TITLE "Dark Train (Original Mix)" INDEX 01 40:45:00 TRACK 09 AUDIO PERFORMER "Infusion" TITLE "Love and Imitation (Guy J Remix)" INDEX 01 44:38:00 TRACK 10 AUDIO PERFORMER "Worakls" TITLE "Sanctis (Original Mix)" INDEX 01 51:20:00
01 Talamanca - Deep Sea (Original Mix) 00:00 02 Joris Voorn - Mugged (Edwin Oosterwal Stripped Edit) 02:09 03 Alyne - Village People (Original Mix) 06:30 04 Cid Inc - Shifter (Original Mix) 14:39 05 16 Bit Lolitas - Personal Space (Guy J Remix) 20:38 06 Ezequiel Arias - Spaceless (Original Mix) 27:36 07 Stoneface & Terminal present Gundamea - The Moment Before (Extended Mix) 33:47 08 Grum, Kevin McKay - Dark Train (Original Mix) 40:45 09 Infusion - Love and Imitation (Guy J Remix) 44:38 10 Worakls - Sanctis (Original Mix) 51:20
Aerodynamix 058 @ Frisky Radio October 2017 mixed by JuanPdata/75-va-aerodynamix_058_mixed_by_juan_prada_friskyradio-oct2017-500px.pngdata/75-va-aerodynamix_058_mixed_by_juan_prada_friskyradio-oct2017.mp3data/75-va-aerodynamix_058_mixed_by_juan_prada_friskyradio-oct2017.ogg
{"Cuesheet":{"performer":"VA [Mixed by JuanP]","title":"Aerodynamix 058 (October 2017) Frisky Radio","file":"75-va-aerodynamix_058_mixed_by_juan_prada_friskyradio-oct2017.mp3"},"Track":[{"performer":"Talamanca","title":"Deep Sea (Original Mix)","index":{"time":"00:00:00","frames":0,"seconds":0,"lenseconds":129,"lentime":"02:09"}},{"performer":"Joris Voorn","title":"Mugged (Edwin Oosterwal Stripped Edit)","index":{"time":"02:09:00","frames":9675,"seconds":129,"lenseconds":261,"lentime":"04:21"}},{"performer":"Alyne","title":"Village People (Original Mix)","index":{"time":"06:30:00","frames":29250,"seconds":390,"lenseconds":489,"lentime":"08:09"}},{"performer":"Cid Inc","title":"Shifter (Original Mix)","index":{"time":"14:39:00","frames":65925,"seconds":879,"lenseconds":359,"lentime":"05:59"}},{"performer":"16 Bit Lolitas","title":"Personal Space (Guy J Remix)","index":{"time":"20:38:00","frames":92850,"seconds":1238,"lenseconds":418,"lentime":"06:58"}},{"performer":"Ezequiel Arias","title":"Spaceless (Original Mix)","index":{"time":"27:36:00","frames":124200,"seconds":1656,"lenseconds":371,"lentime":"06:11"}},{"performer":"Stoneface & Terminal present Gundamea","title":"The Moment Before (Extended Mix)","index":{"time":"33:47:00","frames":152025,"seconds":2027,"lenseconds":418,"lentime":"06:58"}},{"performer":"Grum, Kevin McKay","title":"Dark Train (Original Mix)","index":{"time":"40:45:00","frames":183375,"seconds":2445,"lenseconds":233,"lentime":"03:53"}},{"performer":"Infusion","title":"Love and Imitation (Guy J Remix)","index":{"time":"44:38:00","frames":200850,"seconds":2678,"lenseconds":402,"lentime":"06:42"}},{"performer":"Worakls","title":"Sanctis (Original Mix)","index":{"time":"51:20:00","frames":231000,"seconds":3080,"lenseconds":520,"lentime":"08:40"}}]}