Carefully constructed music sets for your aural pleasure
Aerodynamix 057 @ Frisky Radio September 2017 mixed by JuanP
Progressive House / Progressive Trance
1:00:00
progressive house, progressive trance
SHOW TRACKLIST
SHOW CUESHEET
SHOW TXT PL

LOAD IN AUDIO PLAYER

1
Union Jack
Cactus (Quietman Remix)
10:06
2
Gai Barone
Lost In Music (Original Mix)
06:59
3
Shingo Nakamura
Always Blood (Groove Kikis Remix)
05:23
4
Dezza
Get Back (Max Freegrant Remix)
04:36
5
Aerotek
Dancefloor Behaviour (Original Mix)
05:35
6
Estiva
Little Planet (Extended Mix)
06:09
7
Jaytech
Inspire (Original Mix)
05:38
8
Ilan Bluestone & Andrew Bayer
Destiny (Original Mix)
05:48
9
Genix
Maheno (Original Mix)
04:32
10
Taishi
Chronicle (Original Mix)
05:14
PERFORMER "VA [Mixed by JuanP]" TITLE "Aerodynamix 057 (September 2017) Frisky Radio" FILE "74-va-aerodynamix_057_mixed_by_juan_prada_friskyradio-sep2017.mp3" WAVE TRACK 01 AUDIO PERFORMER "Union Jack" TITLE "Cactus (Quietman Remix)" INDEX 01 00:00:00 TRACK 02 AUDIO PERFORMER "Gai Barone" TITLE "Lost In Music (Original Mix)" INDEX 01 10:06:00 TRACK 03 AUDIO PERFORMER "Shingo Nakamura" TITLE "Always Blood (Groove Kikis Remix)" INDEX 01 17:05:00 TRACK 04 AUDIO PERFORMER "Dezza" TITLE "Get Back (Max Freegrant Remix)" INDEX 01 22:28:00 TRACK 05 AUDIO PERFORMER "Aerotek" TITLE "Dancefloor Behaviour (Original Mix)" INDEX 01 27:04:00 TRACK 06 AUDIO PERFORMER "Estiva" TITLE "Little Planet (Extended Mix)" INDEX 01 32:39:00 TRACK 07 AUDIO PERFORMER "Jaytech" TITLE "Inspire (Original Mix)" INDEX 01 38:48:00 TRACK 08 AUDIO PERFORMER "Ilan Bluestone & Andrew Bayer" TITLE "Destiny (Original Mix)" INDEX 01 44:26:00 TRACK 09 AUDIO PERFORMER "Genix" TITLE "Maheno (Original Mix)" INDEX 01 50:14:00 TRACK 10 AUDIO PERFORMER "Taishi" TITLE "Chronicle (Original Mix)" INDEX 01 54:46:00
01 Union Jack - Cactus (Quietman Remix) 00:00 02 Gai Barone - Lost In Music (Original Mix) 10:06 03 Shingo Nakamura - Always Blood (Groove Kikis Remix) 17:05 04 Dezza - Get Back (Max Freegrant Remix) 22:28 05 Aerotek - Dancefloor Behaviour (Original Mix) 27:04 06 Estiva - Little Planet (Extended Mix) 32:39 07 Jaytech - Inspire (Original Mix) 38:48 08 Ilan Bluestone & Andrew Bayer - Destiny (Original Mix) 44:26 09 Genix - Maheno (Original Mix) 50:14 10 Taishi - Chronicle (Original Mix) 54:46
Aerodynamix 057 @ Frisky Radio September 2017 mixed by JuanPdata/74-va-aerodynamix_057_mixed_by_juan_prada_friskyradio-sep2017-500px.pngdata/74-va-aerodynamix_057_mixed_by_juan_prada_friskyradio-sep2017.mp3data/74-va-aerodynamix_057_mixed_by_juan_prada_friskyradio-sep2017.ogg
{"Cuesheet":{"performer":"VA [Mixed by JuanP]","title":"Aerodynamix 057 (September 2017) Frisky Radio","file":"74-va-aerodynamix_057_mixed_by_juan_prada_friskyradio-sep2017.mp3"},"Track":[{"performer":"Union Jack","title":"Cactus (Quietman Remix)","index":{"time":"00:00:00","frames":0,"seconds":0,"lenseconds":606,"lentime":"10:06"}},{"performer":"Gai Barone","title":"Lost In Music (Original Mix)","index":{"time":"10:06:00","frames":45450,"seconds":606,"lenseconds":419,"lentime":"06:59"}},{"performer":"Shingo Nakamura","title":"Always Blood (Groove Kikis Remix)","index":{"time":"17:05:00","frames":76875,"seconds":1025,"lenseconds":323,"lentime":"05:23"}},{"performer":"Dezza","title":"Get Back (Max Freegrant Remix)","index":{"time":"22:28:00","frames":101100,"seconds":1348,"lenseconds":276,"lentime":"04:36"}},{"performer":"Aerotek","title":"Dancefloor Behaviour (Original Mix)","index":{"time":"27:04:00","frames":121800,"seconds":1624,"lenseconds":335,"lentime":"05:35"}},{"performer":"Estiva","title":"Little Planet (Extended Mix)","index":{"time":"32:39:00","frames":146925,"seconds":1959,"lenseconds":369,"lentime":"06:09"}},{"performer":"Jaytech","title":"Inspire (Original Mix)","index":{"time":"38:48:00","frames":174600,"seconds":2328,"lenseconds":338,"lentime":"05:38"}},{"performer":"Ilan Bluestone & Andrew Bayer","title":"Destiny (Original Mix)","index":{"time":"44:26:00","frames":199950,"seconds":2666,"lenseconds":348,"lentime":"05:48"}},{"performer":"Genix","title":"Maheno (Original Mix)","index":{"time":"50:14:00","frames":226050,"seconds":3014,"lenseconds":272,"lentime":"04:32"}},{"performer":"Taishi","title":"Chronicle (Original Mix)","index":{"time":"54:46:00","frames":246450,"seconds":3286,"lenseconds":314,"lentime":"05:14"}}]}