Carefully constructed music sets for your aural pleasure
Aerodynamix 052 @ Frisky Radio April 2017 mixed by JuanP
Progressive House
1:00:00
progressive house
SHOW TRACKLIST
SHOW CUESHEET
SHOW TXT PL

LOAD IN AUDIO PLAYER

1
Foxhill
Supermassive (Extended Mix)
07:56
2
Olderic, Peter Pardeike
Connaisseur (Original Mix)
05:49
3
Elypsis
Into the Storm (Original Mix)
03:58
4
SEQU3L & Dharmalogy
Extreme Ends Praveen (Achary Remix)
06:21
5
Matter & Universal Harmonics
Acacia (Original Mix)
07:56
6
Guy J
MDQ (Edit)
05:33
7
Jeremy Olander
Billinghurst (Original Mix)
06:15
8
Kamilo Sanclemente
The White City (Original Mix)
05:59
9
Roland Klinkenberg ft. DJ Remy
Mexico Can Wait (Jonnas B Unofficial Remix)
07:48
10
Roger Martinez
Pan-O-Rama (Cid Inc Remix) (Edit)
02:25
PERFORMER "VA [Mixed by JuanP]" TITLE "Aerodynamix 052 (April 2017) Frisky Radio" FILE "69-va-aerodynamix_052_mixed_by_juan_prada_friskyradio-apr2017.mp3" WAVE TRACK 01 AUDIO PERFORMER "Foxhill" TITLE "Supermassive (Extended Mix)" INDEX 01 00:00:00 TRACK 02 AUDIO PERFORMER "Olderic, Peter Pardeike" TITLE "Connaisseur (Original Mix)" INDEX 01 07:56:00 TRACK 03 AUDIO PERFORMER "Elypsis" TITLE "Into the Storm (Original Mix)" INDEX 01 13:45:00 TRACK 04 AUDIO PERFORMER "SEQU3L & Dharmalogy" TITLE "Extreme Ends Praveen (Achary Remix)" INDEX 01 17:43:99 TRACK 05 AUDIO PERFORMER "Matter & Universal Harmonics" TITLE "Acacia (Original Mix)" INDEX 01 24:04:00 TRACK 06 AUDIO PERFORMER "Guy J" TITLE "MDQ (Edit)" INDEX 01 32:00:00 TRACK 07 AUDIO PERFORMER "Jeremy Olander" TITLE "Billinghurst (Original Mix)" INDEX 01 37:33:00 TRACK 08 AUDIO PERFORMER "Kamilo Sanclemente" TITLE "The White City (Original Mix)" INDEX 01 43:48:00 TRACK 09 AUDIO PERFORMER "Roland Klinkenberg ft. DJ Remy" TITLE "Mexico Can Wait (Jonnas B Unofficial Remix)" INDEX 01 49:47:00 TRACK 10 AUDIO PERFORMER "Roger Martinez" TITLE "Pan-O-Rama (Cid Inc Remix) (Edit)" INDEX 01 57:35:00
01 Foxhill - Supermassive (Extended Mix) 00:00 02 Olderic, Peter Pardeike - Connaisseur (Original Mix) 07:56 03 Elypsis - Into the Storm (Original Mix) 13:45 04 SEQU3L & Dharmalogy - Extreme Ends Praveen (Achary Remix) 17:43 05 Matter & Universal Harmonics - Acacia (Original Mix) 24:04 06 Guy J - MDQ (Edit) 32:00 07 Jeremy Olander - Billinghurst (Original Mix) 37:33 08 Kamilo Sanclemente - The White City (Original Mix) 43:48 09 Roland Klinkenberg ft. DJ Remy - Mexico Can Wait (Jonnas B Unofficial Remix) 49:47 10 Roger Martinez - Pan-O-Rama (Cid Inc Remix) (Edit) 57:35
Aerodynamix 052 @ Frisky Radio April 2017 mixed by JuanPdata/69-va-aerodynamix_052_mixed_by_juan_prada_friskyradio-apr2017-500px.pngdata/69-va-aerodynamix_052_mixed_by_juan_prada_friskyradio-apr2017.mp3data/69-va-aerodynamix_052_mixed_by_juan_prada_friskyradio-apr2017.ogg
{"Cuesheet":{"performer":"VA [Mixed by JuanP]","title":"Aerodynamix 052 (April 2017) Frisky Radio","file":"69-va-aerodynamix_052_mixed_by_juan_prada_friskyradio-apr2017.mp3"},"Track":[{"performer":"Foxhill","title":"Supermassive (Extended Mix)","index":{"time":"00:00:00","frames":0,"seconds":0,"lenseconds":476,"lentime":"07:56"}},{"performer":"Olderic, Peter Pardeike","title":"Connaisseur (Original Mix)","index":{"time":"07:56:00","frames":35700,"seconds":476,"lenseconds":349,"lentime":"05:49"}},{"performer":"Elypsis","title":"Into the Storm (Original Mix)","index":{"time":"13:45:00","frames":61875,"seconds":825,"lenseconds":238,"lentime":"03:58"}},{"performer":"SEQU3L & Dharmalogy","title":"Extreme Ends Praveen (Achary Remix)","index":{"time":"17:43:99","frames":79824,"seconds":1063,"lenseconds":381,"lentime":"06:21"}},{"performer":"Matter & Universal Harmonics","title":"Acacia (Original Mix)","index":{"time":"24:04:00","frames":108300,"seconds":1444,"lenseconds":476,"lentime":"07:56"}},{"performer":"Guy J","title":"MDQ (Edit)","index":{"time":"32:00:00","frames":144000,"seconds":1920,"lenseconds":333,"lentime":"05:33"}},{"performer":"Jeremy Olander","title":"Billinghurst (Original Mix)","index":{"time":"37:33:00","frames":168975,"seconds":2253,"lenseconds":375,"lentime":"06:15"}},{"performer":"Kamilo Sanclemente","title":"The White City (Original Mix)","index":{"time":"43:48:00","frames":197100,"seconds":2628,"lenseconds":359,"lentime":"05:59"}},{"performer":"Roland Klinkenberg ft. DJ Remy","title":"Mexico Can Wait (Jonnas B Unofficial Remix)","index":{"time":"49:47:00","frames":224025,"seconds":2987,"lenseconds":468,"lentime":"07:48"}},{"performer":"Roger Martinez","title":"Pan-O-Rama (Cid Inc Remix) (Edit)","index":{"time":"57:35:00","frames":259125,"seconds":3455,"lenseconds":145,"lentime":"02:25"}}]}