Carefully constructed music sets for your aural pleasure
Aerodynamix 049 @ Frisky Radio January 2017 mixed by JuanP
Progressive House
1:00:00
progressive house
SHOW TRACKLIST
SHOW CUESHEET
SHOW TXT PL

LOAD IN AUDIO PLAYER

1
Beckers, D_Nox, Santiago Franch
Summer Lights (Original Mix)
07:56
2
Christian Monique
Finally Together (Original Mix)
05:53
3
Third Son
Refuge (Original Mix)
05:17
4
Robert Babicz
Stimulate (Jerome Isma_Ae & Alastor Remix)
07:56
5
Matter
Pronoia (Original Mix)
06:25
6
Boruch
Tidal (Moonwatch3r Pres. Summerstories)
05:33
7
Phalguna Somraj
Ku De Ta (Difstate Remix)
07:24
8
Joe Drummer
Spring (Difstate Remix)
07:17
9
Einmusik
Pristine
06:19
PERFORMER "VA [Mixed by JuanP]" TITLE "Aerodynamix 049 (January 2017) Frisky Radio" FILE "66-va-aerodynamix_049_mixed_by_juan_prada_friskyradio-jan2017.mp3" WAVE TRACK 01 AUDIO PERFORMER "Beckers, D_Nox, Santiago Franch" TITLE "Summer Lights (Original Mix)" INDEX 01 00:00:00 TRACK 02 AUDIO PERFORMER "Christian Monique" TITLE "Finally Together (Original Mix)" INDEX 01 07:56:00 TRACK 03 AUDIO PERFORMER "Third Son" TITLE "Refuge (Original Mix)" INDEX 01 13:49:00 TRACK 04 AUDIO PERFORMER "Robert Babicz" TITLE "Stimulate (Jerome Isma_Ae & Alastor Remix)" INDEX 01 19:06:00 TRACK 05 AUDIO PERFORMER "Matter" TITLE "Pronoia (Original Mix)" INDEX 01 27:02:00 TRACK 06 AUDIO PERFORMER "Boruch" TITLE "Tidal (Moonwatch3r Pres. Summerstories)" INDEX 01 33:27:00 TRACK 07 AUDIO PERFORMER "Phalguna Somraj" TITLE "Ku De Ta (Difstate Remix)" INDEX 01 39:00:00 TRACK 08 AUDIO PERFORMER "Joe Drummer" TITLE "Spring (Difstate Remix)" INDEX 01 46:24:00 TRACK 09 AUDIO PERFORMER "Einmusik" TITLE "Pristine" INDEX 01 53:41:00
01 Beckers, D_Nox, Santiago Franch - Summer Lights (Original Mix) 00:00 02 Christian Monique - Finally Together (Original Mix) 07:56 03 Third Son - Refuge (Original Mix) 13:49 04 Robert Babicz - Stimulate (Jerome Isma_Ae & Alastor Remix) 19:06 05 Matter - Pronoia (Original Mix) 27:02 06 Boruch - Tidal (Moonwatch3r Pres. Summerstories) 33:27 07 Phalguna Somraj - Ku De Ta (Difstate Remix) 39:00 08 Joe Drummer - Spring (Difstate Remix) 46:24 09 Einmusik - Pristine 53:41
Aerodynamix 049 @ Frisky Radio January 2017 mixed by JuanPdata/66-va-aerodynamix_049_mixed_by_juan_prada_friskyradio-jan2017-500px.pngdata/66-va-aerodynamix_049_mixed_by_juan_prada_friskyradio-jan2017.mp3data/66-va-aerodynamix_049_mixed_by_juan_prada_friskyradio-jan2017.ogg
{"Cuesheet":{"performer":"VA [Mixed by JuanP]","title":"Aerodynamix 049 (January 2017) Frisky Radio","file":"66-va-aerodynamix_049_mixed_by_juan_prada_friskyradio-jan2017.mp3"},"Track":[{"performer":"Beckers, D_Nox, Santiago Franch","title":"Summer Lights (Original Mix)","index":{"time":"00:00:00","frames":0,"seconds":0,"lenseconds":476,"lentime":"07:56"}},{"performer":"Christian Monique","title":"Finally Together (Original Mix)","index":{"time":"07:56:00","frames":35700,"seconds":476,"lenseconds":353,"lentime":"05:53"}},{"performer":"Third Son","title":"Refuge (Original Mix)","index":{"time":"13:49:00","frames":62175,"seconds":829,"lenseconds":317,"lentime":"05:17"}},{"performer":"Robert Babicz","title":"Stimulate (Jerome Isma_Ae & Alastor Remix)","index":{"time":"19:06:00","frames":85950,"seconds":1146,"lenseconds":476,"lentime":"07:56"}},{"performer":"Matter","title":"Pronoia (Original Mix)","index":{"time":"27:02:00","frames":121650,"seconds":1622,"lenseconds":385,"lentime":"06:25"}},{"performer":"Boruch","title":"Tidal (Moonwatch3r Pres. Summerstories)","index":{"time":"33:27:00","frames":150525,"seconds":2007,"lenseconds":333,"lentime":"05:33"}},{"performer":"Phalguna Somraj","title":"Ku De Ta (Difstate Remix)","index":{"time":"39:00:00","frames":175500,"seconds":2340,"lenseconds":444,"lentime":"07:24"}},{"performer":"Joe Drummer","title":"Spring (Difstate Remix)","index":{"time":"46:24:00","frames":208800,"seconds":2784,"lenseconds":437,"lentime":"07:17"}},{"performer":"Einmusik","title":"Pristine","index":{"time":"53:41:00","frames":241575,"seconds":3221,"lenseconds":379,"lentime":"06:19"}}]}