Carefully constructed music sets for your aural pleasure
Aerodynamix 048 @ Frisky Radio December 2016 mixed by JuanP
Progressive House Electronica
1:00:00
progressive house electronica
SHOW TRACKLIST
SHOW CUESHEET
SHOW TXT PL

LOAD IN AUDIO PLAYER

1
Jerome Isma-Ae & Alastor
Tiger (Extended Mix)
08:35
2
Boy Bianchi
Fireworks (Original Mix)
06:15
3
Khen
Authentica (Original Mix)
06:30
4
Dmitry Molosh
Horizon (Original Mix)
06:14
5
Jeremy Olander
Panorama (Original Mix)
06:30
6
Roland Klinkenberg, DJ Remy
Mexico Can Wait (Gabriel Ananda Remix)
07:57
7
Hoito
Modern Kush
07:10
8
Einmusik
Tainted (Original Mix)
04:36
9
9b0
Chestral
06:13
PERFORMER "VA [Mixed by JuanP]" TITLE "Aerodynamix 048 (December 2016) Frisky Radio" FILE "65-va-aerodynamix_048_mixed_by_juan_prada_friskyradio-dec2016.mp3" WAVE TRACK 01 AUDIO PERFORMER "Jerome Isma-Ae & Alastor" TITLE "Tiger (Extended Mix)" INDEX 01 00:00:00 TRACK 02 AUDIO PERFORMER "Boy Bianchi" TITLE "Fireworks (Original Mix)" INDEX 01 08:35:00 TRACK 03 AUDIO PERFORMER "Khen" TITLE "Authentica (Original Mix)" INDEX 01 14:50:00 TRACK 04 AUDIO PERFORMER "Dmitry Molosh" TITLE "Horizon (Original Mix)" INDEX 01 21:20:00 TRACK 05 AUDIO PERFORMER "Jeremy Olander" TITLE "Panorama (Original Mix)" INDEX 01 27:34:00 TRACK 06 AUDIO PERFORMER "Roland Klinkenberg, DJ Remy" TITLE "Mexico Can Wait (Gabriel Ananda Remix)" INDEX 01 34:04:00 TRACK 07 AUDIO PERFORMER "Hoito" TITLE "Modern Kush" INDEX 01 42:01:00 TRACK 08 AUDIO PERFORMER "Einmusik" TITLE "Tainted (Original Mix)" INDEX 01 49:11:00 TRACK 09 AUDIO PERFORMER "9b0" TITLE "Chestral" INDEX 01 53:47:00
01 Jerome Isma-Ae & Alastor - Tiger (Extended Mix) 00:00 02 Boy Bianchi - Fireworks (Original Mix) 08:35 03 Khen - Authentica (Original Mix) 14:50 04 Dmitry Molosh - Horizon (Original Mix) 21:20 05 Jeremy Olander - Panorama (Original Mix) 27:34 06 Roland Klinkenberg, DJ Remy - Mexico Can Wait (Gabriel Ananda Remix) 34:04 07 Hoito - Modern Kush 42:01 08 Einmusik - Tainted (Original Mix) 49:11 09 9b0 - Chestral 53:47
Aerodynamix 048 @ Frisky Radio December 2016 mixed by JuanPdata/65-va-aerodynamix_048_mixed_by_juan_prada_friskyradio-dec2016-500px.pngdata/65-va-aerodynamix_048_mixed_by_juan_prada_friskyradio-dec2016.mp3data/65-va-aerodynamix_048_mixed_by_juan_prada_friskyradio-dec2016.ogg
{"Cuesheet":{"performer":"VA [Mixed by JuanP]","title":"Aerodynamix 048 (December 2016) Frisky Radio","file":"65-va-aerodynamix_048_mixed_by_juan_prada_friskyradio-dec2016.mp3"},"Track":[{"performer":"Jerome Isma-Ae & Alastor","title":"Tiger (Extended Mix)","index":{"time":"00:00:00","frames":0,"seconds":0,"lenseconds":515,"lentime":"08:35"}},{"performer":"Boy Bianchi","title":"Fireworks (Original Mix)","index":{"time":"08:35:00","frames":38625,"seconds":515,"lenseconds":375,"lentime":"06:15"}},{"performer":"Khen","title":"Authentica (Original Mix)","index":{"time":"14:50:00","frames":66750,"seconds":890,"lenseconds":390,"lentime":"06:30"}},{"performer":"Dmitry Molosh","title":"Horizon (Original Mix)","index":{"time":"21:20:00","frames":96000,"seconds":1280,"lenseconds":374,"lentime":"06:14"}},{"performer":"Jeremy Olander","title":"Panorama (Original Mix)","index":{"time":"27:34:00","frames":124050,"seconds":1654,"lenseconds":390,"lentime":"06:30"}},{"performer":"Roland Klinkenberg, DJ Remy","title":"Mexico Can Wait (Gabriel Ananda Remix)","index":{"time":"34:04:00","frames":153300,"seconds":2044,"lenseconds":477,"lentime":"07:57"}},{"performer":"Hoito","title":"Modern Kush","index":{"time":"42:01:00","frames":189075,"seconds":2521,"lenseconds":430,"lentime":"07:10"}},{"performer":"Einmusik","title":"Tainted (Original Mix)","index":{"time":"49:11:00","frames":221325,"seconds":2951,"lenseconds":276,"lentime":"04:36"}},{"performer":"9b0","title":"Chestral","index":{"time":"53:47:00","frames":242025,"seconds":3227,"lenseconds":373,"lentime":"06:13"}}]}