Carefully constructed music sets for your aural pleasure
Aerodynamix 047 @ Frisky Radio November 2016 mixed by JuanP
Progressive House
1:00:00
progressive house
SHOW TRACKLIST
SHOW CUESHEET
SHOW TXT PL

LOAD IN AUDIO PLAYER

1
EDLands
Peace Of Mind (Original Mix)
07:54
2
Blugazer feat. The Cynic Project
Feel Me Wondering (LTN Sunrise Remix)
03:52
3
Frankey & Sandrino
Acamar (Original Mix)
05:25
4
Navid Mehr
Solomon s Throne (Pete K Remix)
05:41
5
Jan Blomqvist
Drift (feat. Aparde)
07:14
6
Quivver
Call (Original Mix)
05:40
7
Gregory Esayan
Ararat (Sam Davies Remix)
05:42
8
Blissful Waves
Circles (New Horizons Remix)
06:36
9
Dan & Sam feat. Maxx Hennard
Walls (Original Mix)
05:48
10
Willy Commy
Galaxy (Original Mix)
06:08
PERFORMER "VA [Mixed by JuanP]" TITLE "Aerodynamix 047 (November 2016) Frisky Radio" FILE "64-va-aerodynamix_047_mixed_by_juan_prada-nov2016.mp3" WAVE TRACK 01 AUDIO PERFORMER "EDLands" TITLE "Peace Of Mind (Original Mix)" INDEX 01 00:00:00 TRACK 02 AUDIO PERFORMER "Blugazer feat. The Cynic Project" TITLE "Feel Me Wondering (LTN Sunrise Remix)" INDEX 01 07:54:00 TRACK 03 AUDIO PERFORMER "Frankey & Sandrino" TITLE "Acamar (Original Mix)" INDEX 01 11:46:00 TRACK 04 AUDIO PERFORMER "Navid Mehr" TITLE "Solomon s Throne (Pete K Remix)" INDEX 01 17:11:00 TRACK 05 AUDIO PERFORMER "Jan Blomqvist" TITLE "Drift (feat. Aparde)" INDEX 01 22:52:00 TRACK 06 AUDIO PERFORMER "Quivver" TITLE "Call (Original Mix)" INDEX 01 30:06:00 TRACK 07 AUDIO PERFORMER "Gregory Esayan" TITLE "Ararat (Sam Davies Remix)" INDEX 01 35:46:00 TRACK 08 AUDIO PERFORMER "Blissful Waves" TITLE "Circles (New Horizons Remix)" INDEX 01 41:28:00 TRACK 09 AUDIO PERFORMER "Dan & Sam feat. Maxx Hennard" TITLE "Walls (Original Mix)" INDEX 01 48:04:00 TRACK 10 AUDIO PERFORMER "Willy Commy" TITLE "Galaxy (Original Mix)" INDEX 01 53:52:00
01 EDLands - Peace Of Mind (Original Mix) 00:00 02 Blugazer feat. The Cynic Project - Feel Me Wondering (LTN Sunrise Remix) 07:54 03 Frankey & Sandrino - Acamar (Original Mix) 11:46 04 Navid Mehr - Solomon s Throne (Pete K Remix) 17:11 05 Jan Blomqvist - Drift (feat. Aparde) 22:52 06 Quivver - Call (Original Mix) 30:06 07 Gregory Esayan - Ararat (Sam Davies Remix) 35:46 08 Blissful Waves - Circles (New Horizons Remix) 41:28 09 Dan & Sam feat. Maxx Hennard - Walls (Original Mix) 48:04 10 Willy Commy - Galaxy (Original Mix) 53:52
Aerodynamix 047 @ Frisky Radio November 2016 mixed by JuanPdata/64-va-aerodynamix_047_mixed_by_juan_prada_friskyradio-nov2016-500px.pngdata/64-va-aerodynamix_047_mixed_by_juan_prada_friskyradio-nov2016.mp3data/64-va-aerodynamix_047_mixed_by_juan_prada_friskyradio-nov2016.ogg
{"Cuesheet":{"performer":"VA [Mixed by JuanP]","title":"Aerodynamix 047 (November 2016) Frisky Radio","file":"64-va-aerodynamix_047_mixed_by_juan_prada-nov2016.mp3"},"Track":[{"performer":"EDLands","title":"Peace Of Mind (Original Mix)","index":{"time":"00:00:00","frames":0,"seconds":0,"lenseconds":474,"lentime":"07:54"}},{"performer":"Blugazer feat. The Cynic Project","title":"Feel Me Wondering (LTN Sunrise Remix)","index":{"time":"07:54:00","frames":35550,"seconds":474,"lenseconds":232,"lentime":"03:52"}},{"performer":"Frankey & Sandrino","title":"Acamar (Original Mix)","index":{"time":"11:46:00","frames":52950,"seconds":706,"lenseconds":325,"lentime":"05:25"}},{"performer":"Navid Mehr","title":"Solomon s Throne (Pete K Remix)","index":{"time":"17:11:00","frames":77325,"seconds":1031,"lenseconds":341,"lentime":"05:41"}},{"performer":"Jan Blomqvist","title":"Drift (feat. Aparde)","index":{"time":"22:52:00","frames":102900,"seconds":1372,"lenseconds":434,"lentime":"07:14"}},{"performer":"Quivver","title":"Call (Original Mix)","index":{"time":"30:06:00","frames":135450,"seconds":1806,"lenseconds":340,"lentime":"05:40"}},{"performer":"Gregory Esayan","title":"Ararat (Sam Davies Remix)","index":{"time":"35:46:00","frames":160950,"seconds":2146,"lenseconds":342,"lentime":"05:42"}},{"performer":"Blissful Waves","title":"Circles (New Horizons Remix)","index":{"time":"41:28:00","frames":186600,"seconds":2488,"lenseconds":396,"lentime":"06:36"}},{"performer":"Dan & Sam feat. Maxx Hennard","title":"Walls (Original Mix)","index":{"time":"48:04:00","frames":216300,"seconds":2884,"lenseconds":348,"lentime":"05:48"}},{"performer":"Willy Commy","title":"Galaxy (Original Mix)","index":{"time":"53:52:00","frames":242400,"seconds":3232,"lenseconds":368,"lentime":"06:08"}}]}