Carefully constructed music sets for your aural pleasure
Aerodynamix 044 @ Frisky Radio August 2016 mixed by JuanP
Nu Disco / House
1:00:00
nu disco, house
SHOW TRACKLIST
SHOW CUESHEET
SHOW TXT PL

LOAD IN AUDIO PLAYER

1
Joel Zimmerman AKA fuckmylife
Analogical
02:42
2
A R I Z O N A
I Was Wrong (Robin Schulz Remix)
03:22
3
Ben Delay
The Boy Is Mine Feat. Alexandra Prince (Mark Lower Remix)
05:36
4
RUFUS
Like an Animal
03:35
5
Sal m Raisov
Hope (Original Mix)
04:53
6
Giorgio Sainz, Night Owl, Pesos Feat. Lili (PL)
Shined On Me (DJ Daso Remix)
03:31
7
Vadim Koks & Dallonte
D.I.S.C.O. (Original Mix)
05:49
8
Todd Terje
Strandbar
04:08
9
Me & My Toothbrush
Gold Member (Original Mix)
04:12
10
Apres
Chicago
04:31
11
Crazibiza
Keep It Comin (Original Mix)
05:10
12
Lenny Fontana feat Karla Brown
Im Gonna Get You (TWISM & B3RAO, Hands Up High Remix)
04:38
13
5Layo, Michel Senar
Have a Ball (Original Mix)
04:54
14
CEV's
Such Is Life (Original Mix)
02:59
PERFORMER "VA [Mixed by JuanP]" TITLE "Aerodynamix 044 (August 2016) Frisky Radio" FILE "61-va-aerodynamix_044_mixed_by_juan_prada_friskyradio-aug2016.mp3" WAVE TRACK 01 AUDIO PERFORMER "Joel Zimmerman AKA fuckmylife" TITLE "Analogical" INDEX 01 00:00:00 TRACK 02 AUDIO PERFORMER "A R I Z O N A" TITLE "I Was Wrong (Robin Schulz Remix)" INDEX 01 02:42:00 TRACK 03 AUDIO PERFORMER "Ben Delay" TITLE "The Boy Is Mine Feat. Alexandra Prince (Mark Lower Remix)" INDEX 01 06:04:00 TRACK 04 AUDIO PERFORMER "RUFUS" TITLE "Like an Animal" INDEX 01 11:40:00 TRACK 05 AUDIO PERFORMER "Sal m Raisov" TITLE "Hope (Original Mix)" INDEX 01 15:15:00 TRACK 06 AUDIO PERFORMER "Giorgio Sainz, Night Owl, Pesos Feat. Lili (PL)" TITLE "Shined On Me (DJ Daso Remix)" INDEX 01 20:08:00 TRACK 07 AUDIO PERFORMER "Vadim Koks & Dallonte" TITLE "D.I.S.C.O. (Original Mix)" INDEX 01 23:39:00 TRACK 08 AUDIO PERFORMER "Todd Terje" TITLE "Strandbar" INDEX 01 29:28:00 TRACK 09 AUDIO PERFORMER "Me & My Toothbrush" TITLE "Gold Member (Original Mix)" INDEX 01 33:36:00 TRACK 10 AUDIO PERFORMER "Apres" TITLE "Chicago" INDEX 01 37:48:00 TRACK 11 AUDIO PERFORMER "Crazibiza" TITLE "Keep It Comin (Original Mix)" INDEX 01 42:19:00 TRACK 12 AUDIO PERFORMER "Lenny Fontana feat Karla Brown" TITLE "Im Gonna Get You (TWISM & B3RAO, Hands Up High Remix)" INDEX 01 47:29:00 TRACK 13 AUDIO PERFORMER "5Layo, Michel Senar" TITLE "Have a Ball (Original Mix)" INDEX 01 52:07:00 TRACK 14 AUDIO PERFORMER "CEV's" TITLE "Such Is Life (Original Mix)" INDEX 01 57:01:00
01 Joel Zimmerman AKA fuckmylife - Analogical 00:00 02 A R I Z O N A - I Was Wrong (Robin Schulz Remix) 02:42 03 Ben Delay - The Boy Is Mine Feat. Alexandra Prince (Mark Lower Remix) 06:04 04 RUFUS - Like an Animal 11:40 05 Sal m Raisov - Hope (Original Mix) 15:15 06 Giorgio Sainz, Night Owl, Pesos Feat. Lili (PL) - Shined On Me (DJ Daso Remix) 20:08 07 Vadim Koks & Dallonte - D.I.S.C.O. (Original Mix) 23:39 08 Todd Terje - Strandbar 29:28 09 Me & My Toothbrush - Gold Member (Original Mix) 33:36 10 Apres - Chicago 37:48 11 Crazibiza - Keep It Comin (Original Mix) 42:19 12 Lenny Fontana feat Karla Brown - Im Gonna Get You (TWISM & B3RAO, Hands Up High Remix) 47:29 13 5Layo, Michel Senar - Have a Ball (Original Mix) 52:07 14 CEV's - Such Is Life (Original Mix) 57:01
Aerodynamix 044 @ Frisky Radio August 2016 mixed by JuanPdata/61-va-aerodynamix_044_mixed_by_juan_prada_friskyradio-aug2016-500px.pngdata/61-va-aerodynamix_044_mixed_by_juan_prada_friskyradio-aug2016.mp3data/61-va-aerodynamix_044_mixed_by_juan_prada_friskyradio-aug2016.ogg
{"Cuesheet":{"performer":"VA [Mixed by JuanP]","title":"Aerodynamix 044 (August 2016) Frisky Radio","file":"61-va-aerodynamix_044_mixed_by_juan_prada_friskyradio-aug2016.mp3"},"Track":[{"performer":"Joel Zimmerman AKA fuckmylife","title":"Analogical","index":{"time":"00:00:00","frames":0,"seconds":0,"lenseconds":162,"lentime":"02:42"}},{"performer":"A R I Z O N A","title":"I Was Wrong (Robin Schulz Remix)","index":{"time":"02:42:00","frames":12150,"seconds":162,"lenseconds":202,"lentime":"03:22"}},{"performer":"Ben Delay","title":"The Boy Is Mine Feat. Alexandra Prince (Mark Lower Remix)","index":{"time":"06:04:00","frames":27300,"seconds":364,"lenseconds":336,"lentime":"05:36"}},{"performer":"RUFUS","title":"Like an Animal","index":{"time":"11:40:00","frames":52500,"seconds":700,"lenseconds":215,"lentime":"03:35"}},{"performer":"Sal m Raisov","title":"Hope (Original Mix)","index":{"time":"15:15:00","frames":68625,"seconds":915,"lenseconds":293,"lentime":"04:53"}},{"performer":"Giorgio Sainz, Night Owl, Pesos Feat. Lili (PL)","title":"Shined On Me (DJ Daso Remix)","index":{"time":"20:08:00","frames":90600,"seconds":1208,"lenseconds":211,"lentime":"03:31"}},{"performer":"Vadim Koks & Dallonte","title":"D.I.S.C.O. (Original Mix)","index":{"time":"23:39:00","frames":106425,"seconds":1419,"lenseconds":349,"lentime":"05:49"}},{"performer":"Todd Terje","title":"Strandbar","index":{"time":"29:28:00","frames":132600,"seconds":1768,"lenseconds":248,"lentime":"04:08"}},{"performer":"Me & My Toothbrush","title":"Gold Member (Original Mix)","index":{"time":"33:36:00","frames":151200,"seconds":2016,"lenseconds":252,"lentime":"04:12"}},{"performer":"Apres","title":"Chicago","index":{"time":"37:48:00","frames":170100,"seconds":2268,"lenseconds":271,"lentime":"04:31"}},{"performer":"Crazibiza","title":"Keep It Comin (Original Mix)","index":{"time":"42:19:00","frames":190425,"seconds":2539,"lenseconds":310,"lentime":"05:10"}},{"performer":"Lenny Fontana feat Karla Brown","title":"Im Gonna Get You (TWISM & B3RAO, Hands Up High Remix)","index":{"time":"47:29:00","frames":213675,"seconds":2849,"lenseconds":278,"lentime":"04:38"}},{"performer":"5Layo, Michel Senar","title":"Have a Ball (Original Mix)","index":{"time":"52:07:00","frames":234525,"seconds":3127,"lenseconds":294,"lentime":"04:54"}},{"performer":"CEV's","title":"Such Is Life (Original Mix)","index":{"time":"57:01:00","frames":256575,"seconds":3421,"lenseconds":179,"lentime":"02:59"}}]}